Поиск

1957 (2000) Horace Silver - Six Pieces Of Silver (RVG Edition) {Blue Note 7243 5 25648 2 8}

1957 (2000) Horace Silver - Six Pieces Of Silver (RVG Edition) {Blue Note 7243 5 25648 2 8}
Страна-производитель диска (релиза):
USA
Дата записи диска:
10 ноября 1956
Дата издания диска:
январь 1957
Дата переиздания диска:
12 сентября 2000
Издатель (лейбл):
Номер по каталогу:
7243 5 25648 2 8
Носитель:
CD
Битрейт аудио:
lossless
Аудиокодек:
APE (*.ape)
Тип рипа:
image+.cue
Время звучания:
58:04
Наличие сканов:
  • да
Релизёр (источник):
ordo
Треклист:

01. Cool Eyes
02. Shirl
03. Camouflage
04. Enchantment
05. Senor Blues
06. Virgo
07. For Heaven's Sake
08. Senor Blues - (alternate take, bonus track)
09. Tippin' - (bonus track)
10. Senor Blues - (vocal version, bonus track)

Состав:
  • Bob Blumenthal Liner Notes
  • Donald Byrd Trumpet
  • Junior Cook Sax (Tenor)
  • Michael Cuscuna Producer
  • Leonard Feather Liner Notes
  • Louis Hayes Drums
  • Bill Henderson Guest Artist
  • Alfred Lion Producer
  • Hank Mobley Sax (Tenor)
  • Horace Silver Composer, Piano
  • Gene Taylor Bass
  • Rudy Van Gelder Remastering
  • Doug Watkins Bass

Recorded at the Van Gelder Studio, Hackensack, New Jersey on November 10, 1956 and June 15, 1958.
Originally released on Blue Note (1539). Includes liner notes by Leonard Feather and Bob Blumenthal.
Digitally remastered using 24-bit technology by Rudy Van Gelder (2000, Van Gelder Studio, Englewood Cliffs, New Jersey).
This is part of the Blue Note Rudy Van Gelder Editions series.
<spoiler title="Лог создания рипа"><pre>Exact Audio Copy V0.99 prebeta 2 from 28. July 2007
Отчёт EAC об извлечении, выполненном 30. октября 2007, 20:32
Horace Silver / Six Pieces Of Silver
Дисковод: HL-DT-STDVDRAM GSA-4167B Adapter: 0 ID: 0
Режим чтения : Достоверность
Использование точного потока : Да
Отключение кэша аудио : Да
Использование указателей C2 : Нет
Коррекция смещения при чтении : 667
Способность читать области Lead-in и Lead-out : Нет
Заполнение пропущенных сэмплов тишиной : Да
Удаление блоков с тишиной в начале и конце : Нет
При вычислениях CRC использовались нулевые сэмплы : Да
Интерфейс : Установленный внешний ASPI-интерфейс
Выходной формат : Внутренние WAV-операции
Формат сэмплов : 44.100 Гц; 16 бит; стерео
TOC извлечённого CD
Трек | Старт | Длительность | Начальный сектор | Конечный сектор
---------------------------------------------------------------------
1 | 0:00.00 | 5:55.46 | 0 | 26670
2 | 5:55.46 | 4:16.47 | 26671 | 45917
3 | 10:12.18 | 4:25.67 | 45918 | 65859
4 | 14:38.10 | 6:22.03 | 65860 | 94512
5 | 21:00.13 | 7:01.47 | 94513 | 126134
6 | 28:01.60 | 5:48.72 | 126135 | 152306
7 | 33:50.57 | 5:09.14 | 152307 | 175495
8 | 38:59.71 | 6:38.02 | 175496 | 205347
9 | 45:37.73 | 6:12.06 | 205348 | 233253
10 | 51:50.04 | 6:14.07 | 233254 | 261310
Характеристики диапазона извлечения и сообщения об ошибках
Выбранный диапазон
Имя файла H:\Muzlo\JAZZ\BIG JAZZ\RIPER-CUTTER\Horace Silver - Six Pieces Of Silver - 1956 {RVG Edition}.wav
Пиковый уровень 97.9 %
Качество диапазона 100.0 %
CRC копии BB70F553
Копирование... OK
Ошибок не произошло
Конец отчёта
Приватный Нет (DHT включён)
Хэш 31074005D3C214BD84B909EEEBFCA28572AA885A
Размер 239.47 Мб (251,105,105 байт) » файлов: 11 [ Список файлов ]
Участники 0 раздают, 0 качают (0 участников всего)
Внешние участники 1 раздают, 0 качают (1 участников всего)
Скорость Сейчас никто не качает
01:38
47
RSS
Нет комментариев. Ваш будет первым!