Поиск

2005 Paul Motian - I Have The Room Above Her

2005 Paul Motian - I Have The Room Above Her
Дата записи диска:
апрель 2004
Дата издания диска:
24 января 2005
Номер по каталогу:
1902 9824056
Носитель:
CD
Битрейт аудио:
lossless
Аудиокодек:
FLAC (*.flac)
Тип рипа:
tracks+.cue
Время звучания:
00:59:49
Наличие сканов:
  • да
Релизёр (источник):
Inochka
Треклист:

01. Osmosis Part III (5:58)
02. Sketches (2:35)
03. Odd Man Out (4:16)
04. Shadows (3:30)
05. I Have The Room Above Her (5:34)
06. Osmosis Part I (3:30)
07. Dance (4:05)
08. Harmony (7:08)
09. The Riot Act (4:41)
10. The Bag Man (5:33)
11. One In Three (7:09)
12. Dreamland (5:50)

Состав:
  • Manfred Eicher Audio Production, Producer
  • James Farber Engineer
  • Bill Frisell Guitar
  • Joe Lovano Sax (Tenor)
  • Paul Motian Composer, Drums
<spoiler title="Лог создания рипа"><pre>Exact Audio Copy V0.99 prebeta 1 from 25. May 2007
Отчёт EAC об извлечении, выполненном 26. октября 2007, 20:37
Joe Lovano / I Have The Room Above Her
Дисковод: _NEC DVD_RW ND-4570A Adapter: 1 ID: 1
Режим чтения : Достоверность
Использование точного потока : Да
Отключение кэша аудио : Да
Использование указателей C2 : Нет
Коррекция смещения при чтении : 48
Способность читать области Lead-in и Lead-out : Нет
Заполнение пропущенных сэмплов тишиной : Да
Удаление блоков с тишиной в начале и конце : Нет
Интерфейс : Установленный внешний ASPI-интерфейс
Обработка зазоров : Не обнаружено, добавлено к предыдущему треку
Выходной формат : Пользовательский кодировщик
Выбранный битрейт : 1024 kBit/s
Качество : Высокий
Добавление ID3-тэга : Да
Утилита сжатия : C:\Program Files\Exact Audio Copy\flac-1.2.0-win\bin\flac.exe
Дополнительные параметры : -8 -V -T "artist=%a" -T "title=%t" -T "album=%g" -T "date=%y" -T "tracknumber=%n" -T "genre=%m" -T "comment=Innochka" %s
TOC извлечённого CD
Трек | Старт | Длительность | Начальный сектор | Конечный сектор
---------------------------------------------------------------------
1 | 0:00.00 | 5:58.37 | 0 | 26886
2 | 5:58.37 | 2:35.58 | 26887 | 38569
3 | 8:34.20 | 4:16.32 | 38570 | 57801
4 | 12:50.52 | 3:30.30 | 57802 | 73581
5 | 16:21.07 | 5:34.68 | 73582 | 98699
6 | 21:56.00 | 3:30.62 | 98700 | 114511
7 | 25:26.62 | 4:05.15 | 114512 | 132901
8 | 29:32.02 | 7:08.58 | 132902 | 165059
9 | 36:40.60 | 4:41.67 | 165060 | 186201
10 | 41:22.52 | 5:33.58 | 186202 | 211234
11 | 46:56.35 | 7:09.27 | 211235 | 243436
12 | 54:05.62 | 5:50.23 | 243437 | 269709
Трек 1
Имя файла G:\Imidg\Новая папка\+Joe Lovano\+Joe Lovano - I Have The Room Above Her\01 - Osmosis Part III.wav
Пиковый уровень 98.6 %
Качество трека 100.0 %
CRC копии 3AA13C58
Копирование... OK
Трек 2
Имя файла G:\Imidg\Новая папка\+Joe Lovano\+Joe Lovano - I Have The Room Above Her\02 - Sketches.wav
Пиковый уровень 98.7 %
Качество трека 100.0 %
CRC копии CB0C18D6
Копирование... OK
Трек 3
Имя файла G:\Imidg\Новая папка\+Joe Lovano\+Joe Lovano - I Have The Room Above Her\03 - Odd Man Out.wav
Пиковый уровень 98.7 %
Качество трека 100.0 %
CRC копии A556BFD9
Копирование... OK
Трек 4
Имя файла G:\Imidg\Новая папка\+Joe Lovano\+Joe Lovano - I Have The Room Above Her\04 - Shadows.wav
Пиковый уровень 98.6 %
Качество трека 100.0 %
CRC копии C20AB096
Копирование... OK
Трек 5
Имя файла G:\Imidg\Новая папка\+Joe Lovano\+Joe Lovano - I Have The Room Above Her\05 - I Have The Room Above Her.wav
Пиковый уровень 98.7 %
Качество трека 100.0 %
CRC копии 09E9A0CF
Копирование... OK
Трек 6
Имя файла G:\Imidg\Новая папка\+Joe Lovano\+Joe Lovano - I Have The Room Above Her\06 - Osmosis Part I.wav
Пиковый уровень 98.7 %
Качество трека 99.9 %
CRC копии 10E5493B
Копирование... OK
Трек 7
Имя файла G:\Imidg\Новая папка\+Joe Lovano\+Joe Lovano - I Have The Room Above Her\07 - Dance.wav
Пиковый уровень 98.7 %
Качество трека 100.0 %
CRC копии 3634F978
Копирование... OK
Трек 8
Имя файла G:\Imidg\Новая папка\+Joe Lovano\+Joe Lovano - I Have The Room Above Her\08 - Harmony.wav
Пиковый уровень 98.7 %
Качество трека 100.0 %
CRC копии C590FA87
Копирование... OK
Трек 9
Имя файла G:\Imidg\Новая папка\+Joe Lovano\+Joe Lovano - I Have The Room Above Her\09 - The Riot Act.wav
Пиковый уровень 98.7 %
Качество трека 99.9 %
CRC копии 4D7DE4BC
Копирование... OK
Трек 10
Имя файла G:\Imidg\Новая папка\+Joe Lovano\+Joe Lovano - I Have The Room Above Her\10 - The Bag Man.wav
Пиковый уровень 98.7 %
Качество трека 100.0 %
CRC копии EC4DD9FD
Копирование... OK
Трек 11
Имя файла G:\Imidg\Новая папка\+Joe Lovano\+Joe Lovano - I Have The Room Above Her\11 - One In Three.wav
Пиковый уровень 98.7 %
Качество трека 99.9 %
CRC копии 4B238804
Копирование... OK
Трек 12
Имя файла G:\Imidg\Новая папка\+Joe Lovano\+Joe Lovano - I Have The Room Above Her\12 - Dreamland.wav
Пиковый уровень 98.7 %
Качество трека 99.9 %
CRC копии 1D3BCBBA
Копирование... OK
Ошибок не произошло
Конец отчёта
Приватный Нет (DHT включён)
Хэш 42117D8C14E8C19819A15DA3377A1DA79E253B47
Размер 329.30 Мб (345,292,093 байт) » файлов: 17 [ Список файлов ]
Участники 0 раздают, 0 качают (0 участников всего)
Внешние участники 1 раздают, 0 качают (1 участников всего)
Скорость Сейчас никто не качает
15:29
33
RSS
Нет комментариев. Ваш будет первым!