Поиск

1956 Lee Konitz & Warne Marsh - Lee Konitz With Warne Marsh [CD]

1956 Lee Konitz & Warne Marsh - Lee Konitz With Warne Marsh [CD]
Стили:
Треклист:
1. Topsy (Durham & Battle)
2. There Will Never Be Another You (Gordon and Warren)
3. I Can't Get Started (Duke and Gershwin)
4. Donna Lee (Charlie Parker)
5. Two Not One (Lennie Tristano)
6. Don't Squawk (Oscar Pettiford)
7. Ronnie's Line (Ronnie Ball)
8. Background Music (Warne Marsh)
Состав:
Лог создания рипа
Exact Audio Copy V0.99 prebeta 4 from 23. January 2008
EAC extraction logfile from 21. June 2009, 9:18
Lee Konitz and Warne Marsh / Lee Konitz with Warne Marsh
Used drive  : HL-DT-STDVD-RAM GH22NP20   Adapter: 0  ID: 0
Read mode               : Secure
Utilize accurate stream : Yes
Defeat audio cache      : Yes
Make use of C2 pointers : No
Read offset correction                      : 102
Overread into Lead-In and Lead-Out          : No
Fill up missing offset samples with silence : Yes
Delete leading and trailing silent blocks   : No
Null samples used in CRC calculations       : Yes
Used interface                              : Installed external ASPI interface
Gap handling                                : Appended to previous track
Used output format              : User Defined Encoder
Selected bitrate                : 320 kBit/s
Quality                         : High
Add ID3 tag                     : Yes
Command line compressor         : C:\Program Files\Exact Audio Copy\Flac\flac.exe
Additional command line options : -V -8 -T "artist=%a" -T "title=%t" -T "album=%g" -T "date=%y" -T "tracknumber=%n" -T "genre=%m" %s
TOC of the extracted CD
     Track |   Start  |  Length  | Start sector | End sector
    ---------------------------------------------------------
        1  |  0:00.32 |  5:29.38 |        32    |    24744
        2  |  5:29.70 |  4:49.10 |     24745    |    46429
        3  | 10:19.05 |  3:58.42 |     46430    |    64321
        4  | 14:17.47 |  6:17.38 |     64322    |    92634
        5  | 20:35.10 |  5:35.55 |     92635    |   117814
        6  | 26:10.65 |  7:20.62 |    117815    |   150876
        7  | 33:31.52 |  3:10.00 |    150877    |   165126
        8  | 36:41.52 |  5:45.05 |    165127    |   191006
Track  1
     Filename D:\music\rip\Lee Konitz and Warne Marsh - Lee Konitz and Warne Marsh (1956) {Russian Print}\01 - Topsy.wav
     Pre-gap length  0:00:02.42
     Peak level 99.9 %
     Track quality 100.0 %
     Test CRC 337FAE9A
     Copy CRC 337FAE9A
     Cannot be verified as accurate (confidence 2)  [7EBE81BE], AccurateRip returned [C0A6D10B]
     Copy OK
Track  2
     Filename D:\music\rip\Lee Konitz and Warne Marsh - Lee Konitz and Warne Marsh (1956) {Russian Print}\02 - There Will Never Be Another You.wav
     Pre-gap length  0:00:04.73
     Peak level 99.9 %
     Track quality 100.0 %
     Test CRC F16D6390
     Copy CRC F16D6390
     Cannot be verified as accurate (confidence 2)  [00420E66], AccurateRip returned [AF860DF1]
     Copy OK
Track  3
     Filename D:\music\rip\Lee Konitz and Warne Marsh - Lee Konitz and Warne Marsh (1956) {Russian Print}\03 - I Can't Get Started.wav
     Pre-gap length  0:00:04.33
     Peak level 99.9 %
     Track quality 100.0 %
     Test CRC 26576700
     Copy CRC 26576700
     Cannot be verified as accurate (confidence 2)  [87FA512F], AccurateRip returned [2D3BF327]
     Copy OK
Track  4
     Filename D:\music\rip\Lee Konitz and Warne Marsh - Lee Konitz and Warne Marsh (1956) {Russian Print}\04 - Donna Lee.wav
     Pre-gap length  0:00:04.53
     Peak level 100.0 %
     Track quality 100.0 %
     Test CRC C3227237
     Copy CRC C3227237
     Cannot be verified as accurate (confidence 2)  [D02698FD], AccurateRip returned [5041788A]
     Copy OK
Track  5
     Filename D:\music\rip\Lee Konitz and Warne Marsh - Lee Konitz and Warne Marsh (1956) {Russian Print}\05 - Two Not One.wav
     Pre-gap length  0:00:03.70
     Peak level 99.9 %
     Track quality 100.0 %
     Test CRC 28C4A77A
     Copy CRC 28C4A77A
     Cannot be verified as accurate (confidence 2)  [3CEAF288], AccurateRip returned [32783352]
     Copy OK
Track  6
     Filename D:\music\rip\Lee Konitz and Warne Marsh - Lee Konitz and Warne Marsh (1956) {Russian Print}\06 - Don't Squawk.wav
     Pre-gap length  0:00:04.46
     Peak level 99.9 %
     Track quality 100.0 %
     Test CRC C1A7B48D
     Copy CRC C1A7B48D
     Cannot be verified as accurate (confidence 2)  [25BC444A], AccurateRip returned [E8F13AEA]
     Copy OK
Track  7
     Filename D:\music\rip\Lee Konitz and Warne Marsh - Lee Konitz and Warne Marsh (1956) {Russian Print}\07 - Ronnies Line.wav
     Pre-gap length  0:00:04.00
     Peak level 99.9 %
     Track quality 100.0 %
     Test CRC BA7E6DD3
     Copy CRC BA7E6DD3
     Cannot be verified as accurate (confidence 2)  [286CF48E], AccurateRip returned [3BA7224A]
     Copy OK
Track  8
     Filename D:\music\rip\Lee Konitz and Warne Marsh - Lee Konitz and Warne Marsh (1956) {Russian Print}\08 - Backgroud Music.wav
     Pre-gap length  0:00:04.16
     Peak level 100.0 %
     Track quality 100.0 %
     Test CRC 7F996259
     Copy CRC 7F996259
     Track not present in AccurateRip database
     Copy OK
 7 track(s) could not be verified as accurate
 1 track(s) not present in the AccurateRip database
No tracks could be verified as accurate
You may have a different pressing from the one(s) in the database
No errors occurred
End of status report
Лог проверки качества
236404541 58125020 01 - Topsy.wav
2079892677 51003164 02 - There Will Never Be Another You.wav
1488947984 42082028 03 - I Can't Get Started.wav
2058160296 66592220 04 - Donna Lee.wav
2032783644 59223404 05 - Two Not One.wav
1790232724 77761868 06 - Don't Squawk.wav
281223158 33516044 07 - Ronnies Line.wav
4001203037 60869804 08 - Backgroud Music.wav
auCDtect: CD records authenticity detector, version 0.8.2
Copyright (c) 2004 Oleg Berngardt. All rights reserved.
Copyright (c) 2004 Alexander Djourik. All rights reserved.
------------------------------------------------------------
Processing file: [01 - Topsy.wav]
------------------------------------------------------------
This track looks like CDDA with probability 100%
------------------------------------------------------------
Processing file: [02 - There Will Never Be Another You.wav]
------------------------------------------------------------
This track looks like CDDA with probability 100%
------------------------------------------------------------
Processing file: [03 - I Can't Get Started.wav]
------------------------------------------------------------
This track looks like CDDA with probability 99%
------------------------------------------------------------
Processing file: [04 - Donna Lee.wav]
------------------------------------------------------------
This track looks like CDDA with probability 85%
------------------------------------------------------------
Processing file: [05 - Two Not One.wav]
------------------------------------------------------------
This track looks like CDDA with probability 100%
------------------------------------------------------------
Processing file: [06 - Don't Squawk.wav]
------------------------------------------------------------
This track looks like CDDA with probability 100%
------------------------------------------------------------
Processing file: [07 - Ronnies Line.wav]
------------------------------------------------------------
This track looks like CDDA with probability 100%
------------------------------------------------------------
Processing file: [08 - Backgroud Music.wav]
------------------------------------------------------------
This track looks like CDDA with probability 100%
------------------------------------------------------------
Final Conclusion:
------------------------------------------------------------
These tracks looks like CDDA with probability 100%
09:43
538
Нет комментариев. Ваш будет первым!