Поиск

1956 Ella Fitzgerald - Sings The Rodgers & Hart Songbook (2019) {Verve Reissues} [24-192]

1956 Ella Fitzgerald - Sings The Rodgers & Hart Songbook (2019) {Verve Reissues} [24-192]
Дата записи диска:
21 августа - 31 августа 1956
Место записи:
Capitol Records Studios A & B, Hollywood, CA, USA
Издатель (лейбл):
Носитель:
WEB
Формат:
PCM
Тип рипа:
tracks
Контейнер:
FLAC (*.flac)
Количество каналов:
2.0
Разрядность/ЧД:
24/192
Битрейт аудио:
lossless
Наличие сканов:
только обложка

01. Have You Met Miss Jones?    3:41
02. You Took Advantage Of Me    3:27
03. A Ship Without A Sail    4:07
04. To Keep My Love Alive    3:34
05. Dancing On The Ceiling    4:06
06. The Lady Is A Tramp    3:21
07. With A Song In My Heart    2:44
08. Manhattan    2:48
09. Johnny One Note    2:12
10. I Wish I Were In Love Again    2:36
11. Spring Is Here    3:38
12. It Never Entered My Mind    4:06
13. This Can't Be Love    2:54
14. Thou Swell    2:03
15. My Romance    3:42
16. Where Or When    2:46
17. Little Girl Blue    3:53
18. Give It Back To The Indians    3:10
19. Ten Cents A Dance    4:06
20. There's A Small Hotel    2:48
21. I Didn't Know What Time It Was    3:46
22. Everything I've Got    3:21
23. I Could Write A Book    3:38
24. Blue Room    2:29
25. My Funny Valentine    3:52
26. Bewitched    7:01
27. Mountain Greenery    2:13
28. Wait Till You See Her    1:30
29. Lover (Stereo Take)    3:16
30. Isn't It Romantic?    3:00
31. Here In My Arms    1:52
32. Blue Moon    3:11
33. My Heart Stood Still    3:02
34. I've Got Five Dollars    2:39

Состав:
  • Milt Bernhart     Trombone
  • Buddy Bregman     Arranger, Conductor
  • Pete Candoli     Trumpet
  • Bob Cooper     Clarinet, Sax (Tenor)
  • Vincent DeRosa     French Horn
  • Maynard Ferguson     Trumpet
  • Ella Fitzgerald     Vocals
  • Chuck Gentry     Bassoon, Clarinet (Bass), Sax (Baritone)
  • Conrad Gozzo     Trumpet
  • Norman Granz     Producer
  • Suha Gur     Mastering
  • Corky Hale     Harp
  • Art Hilgart     Liner Notes
  • Milt Holland     Bells, Bongos, Glockenspiel, Marimba, Timbales, Vibraphone, Xylophone
  • Joe Howard     Trombone
  • Barney Kessel     Guitar
  • Jule Kinzler     Flute
  • Arnold Koblentz     Horn (English), Oboe
  • Robert LaMarchina     Cello
  • Ray Linn     Trumpet
  • Edgar Lustgarten     Cello
  • Joe Mondragon     Bass
  • Aric Lach Morrison     Production Coordination
  • Abe Most     Clarinet
  • Ted Nash     Clarinet, Flute, Sax (Soprano), Sax (Tenor)
  • Peter Pullman     Editing
  • George Roberts     Trombone (Bass)
  • Phil Schaap     Research
  • Willie Schwartz     Clarinet, Sax (Alto), Sax (Soprano)
  • Richard Seidel     Executive Producer
  • Bud Shank     Clarinet, Flute, Sax (Alto), Sax (Soprano)
  • Robert Silverberg     Production Assistant
  • Paul Smith     Arranger, Piano
  • Maurice Stein     Sax (Alto)
  • Alvin Stoller     Drums
  • Lloyd Ulyate     Trombone
  • Ben Young     Research
Лог проверки качества
foobar2000 1.6.2 / Dynamic Range Meter 1.1.1
log date: 2022-02-15 18:27:33

--------------------------------------------------------------------------------
Analyzed: Ella Fitzgerald / Ella Fitzgerald Sings The Rodgers & Hart Songbook
--------------------------------------------------------------------------------

DR         Peak         RMS     Duration Track
--------------------------------------------------------------------------------
DR10      -5.29 dB   -18.18 dB      3:41 01-Have You Met Miss Jones?
DR14      -2.37 dB   -20.86 dB      3:28 02-You Took Advantage Of Me
DR10      -4.59 dB   -17.88 dB      4:08 03-A Ship Without A Sail
DR10      -6.85 dB   -19.25 dB      3:37 04-To Keep My Love Alive
DR11      -5.69 dB   -18.53 dB      4:08 05-Dancing On The Ceiling
DR10      -5.54 dB   -18.29 dB      3:24 06-The Lady Is A Tramp
DR10      -5.95 dB   -19.10 dB      2:46 07-With A Song In My Heart
DR10      -4.41 dB   -17.74 dB      2:52 08-Manhattan
DR11      -2.96 dB   -16.64 dB      2:14 09-Johnny One Note
DR11      -3.82 dB   -17.93 dB      2:38 10-I Wish I Were In Love Again
DR9       -3.29 dB   -17.44 dB      3:40 11-Spring Is Here
DR10      -3.87 dB   -16.91 dB      4:08 12-It Never Entered My Mind
DR13      -1.38 dB   -17.31 dB      2:58 13-This Can't Be Love
DR10      -5.60 dB   -17.74 dB      2:05 14-Thou Swell
DR11      -2.97 dB   -17.06 dB      3:44 15-My Romance
DR12      -2.97 dB   -18.55 dB      2:48 16-Where Or When
DR10      -4.80 dB   -17.13 dB      3:55 17-Little Girl Blue
DR11      -4.23 dB   -17.68 dB      3:13 18-Give It Back To The Indians
DR11      -1.89 dB   -18.37 dB      4:08 19-Ten Cents A Dance
DR11      -3.63 dB   -17.51 dB      2:49 20-There's A Small Hotel (Stereo Version)
DR10      -5.04 dB   -18.74 dB      3:47 21-I Didn't Know What Time It Was
DR10      -5.47 dB   -17.11 dB      3:23 22-Ev'rything I've Got
DR11      -4.74 dB   -18.75 dB      3:40 23-I Could Write A Book
DR11      -5.29 dB   -18.27 dB      2:32 24-The Blue Room
DR10      -4.96 dB   -18.38 dB      3:55 25-My Funny Valentine
DR12      -4.11 dB   -19.00 dB      7:03 26-Bewitched, Bothered, And Bewildered
DR11      -4.45 dB   -17.88 dB      2:15 27-Mountain Greenery
DR11      -4.04 dB   -18.64 dB      1:31 28-Wait Till You See Her
DR11      -2.89 dB   -16.61 dB      3:18 29-Lover
DR11      -3.62 dB   -18.79 dB      3:03 30-Isn't It Romantic?
DR11      -4.99 dB   -18.62 dB      1:55 31-Here In My Arms
DR9       -5.24 dB   -17.85 dB      3:13 32-Blue Moon
DR10      -4.86 dB   -16.11 dB      3:05 33-My Heart Stood Still
DR10      -3.54 dB   -16.46 dB      2:42 34-I've Got Five Dollars
--------------------------------------------------------------------------------

Number of tracks:  34
Official DR value: DR11

Samplerate:        192000 Hz
Channels:          2
Bits per sample:   24
Bitrate:           3039 kbps
Codec:             FLAC
================================================================================
Скачивание доступно после регистрации!!
Приватный:
Да (DHT отключён)
Размер:
3.85 Гб (4,137,685,563 байт) » файлов: 37
Участники:
3 раздают, 0 качают (3 участников всего)
Внешние участники:
--- [ Обновить ]
21:20
586
Нет комментариев. Ваш будет первым!