Поиск

1979 Jacques Loussier - Pulsion (2021) {Sony Masterworks} [24-96]

1979 Jacques Loussier - Pulsion (2021) {Sony Masterworks} [24-96]
Стили:
Место записи:
Studio Miraval, Domaine de Miraval, Le Val, France
Дата переиздания диска:
23 июля 2021
Издатель (лейбл):
Носитель:
WEB
Формат:
PCM
Тип рипа:
tracks
Контейнер:
FLAC (*.flac)
Количество каналов:
2.0
Разрядность/ЧД:
24/96
Битрейт аудио:
lossless
Время звучания:
00:34:44
Наличие сканов:
только обложка

Треклист:

01 - Pulsion (04:15)
02 - Soupir (05:08)
03 - Distraction (03:03)
04 - Cafeine (04:22)
05 - Mozart (06:38)
06 - Ludwig (04:44)
07 - Murmure (03:39)
08 - Secousse (02:51)

Состав:
  • Jacques Loussier — piano
  • Luc Heller — drums
Лог проверки качества
foobar2000 1.4.2 / Dynamic Range Meter 1.1.1
log date: 2021-07-27 20:39:20
--------------------------------------------------------------------------------
Analyzed: Jacques Loussier / Pulsion
--------------------------------------------------------------------------------
DR         Peak         RMS     Duration Track
--------------------------------------------------------------------------------
DR11      -0.09 dB   -14.89 dB      4:16 01-Pulsion
DR11      -0.10 dB   -15.19 dB      5:08 02-Soupir
DR10      -0.10 dB   -12.72 dB      3:04 03-Distraction
DR12      -0.10 dB   -15.85 dB      4:23 04-CafГ©ine
DR9       -0.10 dB   -11.09 dB      6:38 05-Mozart
DR10      -0.10 dB   -14.45 dB      4:45 06-Ludwig
DR10      -0.10 dB   -12.95 dB      3:40 07-Murmure
DR10      -0.10 dB   -12.31 dB      2:52 08-Secousse
--------------------------------------------------------------------------------
Number of tracks:  8
Official DR value: DR11
Samplerate:        96000 Hz
Channels:          2
Bits per sample:   24
Bitrate:           3107 kbps
Codec:             FLAC
================================================================================
По всем вопросам пишите личное сообщение пользователю M0p94ok.
17:20
208
Нет комментариев. Ваш будет первым!