Поиск

1956 Cal Tjader - Latin Kick (2019) {RevOla} [24-44,1]

1956 Cal Tjader - Latin Kick (2019) {RevOla} [24-44,1]
Стили:
Треклист:

01 - Invitation 04:16
02 - Lover Come Back To Me 03:45
03 - September Song 03:03
04 - Will You Still Be Mine 03:31
05 - I Love Paris 05:55
06 - Tropicville 03:16
07 - Moonlight In Vermont 02:59
08 - Bye Bye Blues 03:39
09 - Manuel's Mambo 03:19
10 - All The Things You Are 04:12
11 - Blues From Havana 03:04

Доп. инфо:

Формат записи/Источник записи: [TR24][OF]
Издание: Remastered
Год издания/переиздания диска: 1956/2019
Издатель (лейбл): RevOla
Продолжительность: 00:40:59
Наличие сканов в содержимом раздачи: Нет

Контейнер: FLAC (*.flac)
Тип рипа: tracks
Разрядность: 24/44,1
Количество каналов: 2.0

Источник (релизер): Qobuz

Лог проверки качества
foobar2000 1.3.16 / Dynamic Range Meter 1.1.1
log date: 2019-01-19 16:50:33

--------------------------------------------------------------------------------
Analyzed: Cal Tjader / Latin Kick (Remastered)
--------------------------------------------------------------------------------

DR         Peak         RMS     Duration Track
--------------------------------------------------------------------------------
DR14      -7.29 dB   -25.38 dB      4:17 01-Invitation (Remastered)
DR14      -5.08 dB   -23.28 dB      3:46 02-Lover Come Back To Me (Remastered)
DR14      -6.76 dB   -25.90 dB      3:03 03-September Song (Remastered)
DR13      -6.72 dB   -22.48 dB      3:31 04-Will You Still Be Mine (Remastered)
DR17      -2.42 dB   -22.53 dB      5:55 05-I Love Paris (Remastered)
DR15      -4.34 dB   -23.22 dB      3:17 06-Tropicville (Remastered)
DR14     -11.71 dB   -28.61 dB      2:59 07-Moonlight In Vermont (Remastered)
DR16      -2.76 dB   -22.63 dB      3:40 08-Bye Bye Blues (Remastered)
DR13      -9.68 dB   -25.19 dB      3:20 09-Manuel's Mambo (Remastered)
DR13      -9.26 dB   -26.16 dB      4:13 10-All The Things You Are (Remastered)
DR15      -5.48 dB   -23.38 dB      3:05 11-Blues From Havana (Remastered)
--------------------------------------------------------------------------------

Number of tracks:  11
Official DR value: DR14

Samplerate:        44100 Hz
Channels:          2
Bits per sample:   24
Bitrate:           1449 kbps
Codec:             FLAC
================================================================================
Приватный:
Нет (DHT включён)
Размер:
421.82 Мб (442,307,886 байт) » файлов: 15
Участники:
0 раздают, 1 качают (1 участников всего)
Внешние участники:
2 раздают, 1 качают (3 участников всего) [ Обновить ]
Скорость:
1.16 Мб/c 0/c
Есть вопросы - пишите личное сообщение пользователю M0p94ok.
00:03
42
Нет комментариев. Ваш будет первым!