Вы используете незарегистрированную версию компонента "Вкладки"!

Поиск

2020 Kat Edmonson - Dreamers Do {Spinnerette} [24-44,1]

2020 Kat Edmonson - Dreamers Do {Spinnerette} [24-44,1]
Стили:
Доп. инфо:

• Формат записи | Источник записи: [TR24][OF]
• Наличие водяных знаков: Нет
• Год издания релиза: 2020
• Лейбл: Spinnerette Records
• Продолжительность: 00:51:29
• WEB релиз: ссылка
• Контейнер: FLAC (*.flac)
• Тип рипа: tracks
• Разрядность: 24/44,1
• Формат: PCM
• Количество каналов: 2.0
• Наличие сканов: front

Лог проверки качества
foobar2000 1.3.9 / Замер динамического диапазона (DR) 1.1.1
Дата отчёта:  2020-02-06 10:57:41

--------------------------------------------------------------------------------
Анализ:   Kat Edmonson / Dreamers Do
--------------------------------------------------------------------------------

DR         Пики         RMS           Продолжительность трека
--------------------------------------------------------------------------------
DR12      -0.02 дБ   -14.29 дБ      2:48 01-A Dream is a Wish Your Heart Makes
DR8        0.00 дБ   -11.65 дБ      2:52 02-Go to Sleep
DR8       -0.02 дБ   -10.85 дБ      3:52 03-In a World of My Own (With Duchess)
DR14      -3.40 дБ   -26.68 дБ      1:02 04-Night Walk - Interlude
DR8       -0.02 дБ   -11.21 дБ      5:17 05-When You Wish Upon a Star
DR11     -17.94 дБ   -34.81 дБ      0:24 06-The Parlor - Interlude
DR9       -0.02 дБ   -11.81 дБ      2:37 07-Chim Chim Cher-Ee
DR8      -15.77 дБ   -30.17 дБ      0:18 08-This Old House - Interlude
DR10      -0.02 дБ   -11.81 дБ      2:04 09-Someone's in the House
DR8       -2.97 дБ   -20.36 дБ      0:19 10-Carlyle - Interlude
DR12      -0.02 дБ   -15.39 дБ      3:03 11-Very Good Advice
DR12      -0.02 дБ   -16.29 дБ      3:42 12-Too Late to Dream
DR10      -2.71 дБ   -19.35 дБ      0:51 13-A Little Night Music? - Interlude
DR8       -0.02 дБ    -9.85 дБ      3:03 14-All I Do is Dream of You
DR10      -0.02 дБ   -13.77 дБ      5:25 15-Be Careful How You Wish
DR10      -0.02 дБ   -13.17 дБ      3:53 16-The Second Star to the Right
DR10      -0.22 дБ   -13.84 дБ      4:22 17-The Age of Not Believing (feat. Bill Frisell)
DR21     -10.03 дБ   -35.13 дБ      0:06 18-Morning - Interlude
DR11      -0.02 дБ   -13.80 дБ      2:45 19-What a Wonderful World
DR9       -0.02 дБ   -11.15 дБ      2:52 20-A Dream is a Wish Your Heart Makes (Reprise)
--------------------------------------------------------------------------------

Количество треков: 20
Реальные значения DR: DR11

Частота:   44100 Гц
Каналов:   2
Разрядность:   24
Битрейт:   1578 кбит/с
Кодек:   FLAC
================================================================================
Any questions - support@pro-jazz.com. Есть вопросы - support@pro-jazz.com
23:05
305
Нет комментариев. Ваш будет первым!