Поиск

2018 Kerem Turkaydin - Candid Music {Columbia} [24-44,1]

2018 Kerem Turkaydin - Candid Music {Columbia} [24-44,1]
Стили:
Издатель (лейбл):
Носитель:
WEB
Формат:
PCM
Тип рипа:
tracks
Контейнер:
FLAC (*.flac)
Количество каналов:
2.0
Разрядность/ЧД:
24/44,1
Время звучания:
00:42:45
Наличие сканов:
только обложка
Наличие водяных знаков:
нет
Релизёр (источник):
M0p94ok
Треклист:

1. Masal  05:11
2. Esma Sultan  05:25
3. Prana  05:40
4. Family Ballad  04:44
5. Beetle Jam  03:37
6. Lunatic Heartbeat  06:43
7. Tango in Subconscious  05:20
8. Cowpea  06:04

Лог проверки качества
foobar2000 1.4.3 / Dynamic Range Meter 1.1.1
log date: 2020-02-24 13:51:04

--------------------------------------------------------------------------------
Analyzed: Kerem Turkaydin / Candid Music
--------------------------------------------------------------------------------

DR         Peak         RMS     Duration Track
--------------------------------------------------------------------------------
DR9       -0.70 dB   -12.46 dB      5:12 01-Masal
DR9       -0.70 dB   -12.11 dB      5:25 02-Esma Sultan
DR6       -0.70 dB    -8.91 dB      5:40 03-Prana
DR11      -0.70 dB   -13.75 dB      4:45 04-Family Ballad
DR8       -0.70 dB   -10.59 dB      3:37 05-Beetle Jam
DR6       -0.70 dB   -10.04 dB      6:43 06-Lunatic Heartbeat
DR10      -0.70 dB   -13.48 dB      5:20 07-Tango in Subconscious
DR6       -0.70 dB    -8.25 dB      6:04 08-Cowpea
--------------------------------------------------------------------------------

Number of tracks:  8
Official DR value: DR8

Samplerate:        44100 Hz
Channels:          2
Bits per sample:   24
Bitrate:           1622 kbps
Codec:             FLAC
================================================================================
Приватный:
Нет (DHT включён)
Размер:
455.53 Мб (477,653,676 байт) » файлов: 10
Участники:
6 раздают, 0 качают (6 участников всего)
Внешние участники:
--- [ Обновить ]
Есть вопросы - пишите личное сообщение пользователю M0p94ok.
14:30
16
Нет комментариев. Ваш будет первым!