Поиск

1956 (2001) Miles Davis - 'Round About Midnight {Columbia Legacy CK 85201}

1956 (2001) Miles Davis - 'Round About Midnight {Columbia Legacy CK 85201}
Страна-производитель диска (релиза):
USA
Дата записи диска:
26 октября - 10 сентября 1956
Дата издания диска:
18 марта 1957
Дата переиздания диска:
2001
Издатель (лейбл):
Номер по каталогу:
CK 85201
Носитель:
CD
Аудиокодек:
FLAC (*.flac)
Тип рипа:
tracks+.cue
Битрейт аудио:
1
Время звучания:
39:27
Релизёр (источник):
xramirez
Состав:
Лог создания рипа
EAC extraction logfile from 16. January 2007, 20:23 for CD
Miles Davis / 'Round About Midnight (Remastered)

Used drive : _NEC DVD+-RW ND-6450A Adapter: 1 ID: 0
Read mode : Secure with NO C2, accurate stream, disable cache
Read offset correction : 48
Overread into Lead-In and Lead-Out : No

Used output format : Internal WAV Routines
44.100 Hz; 16 Bit; Stereo

Other options :
Fill up missing offset samples with silence : Yes
Delete leading and trailing silent blocks : No
Installed external ASPI interface

Track 1
Filename C:\Documents and Settings\user\Documenti\file flac\01'Round Midnight.wav

Pre-gap length 0:00:02.00

Peak level 100.0 %
Track quality 100.0 %
Test CRC 58B98F93
Copy CRC 58B98F93
Copy OK

Track 2
Filename C:\Documents and Settings\user\Documenti\file flac\02Ah-Leu-Cha.wav

Pre-gap length 0:00:02.86

Peak level 100.0 %
Track quality 100.0 %
Test CRC C224CA03
Copy CRC C224CA03
Copy OK

Track 3
Filename C:\Documents and Settings\user\Documenti\file flac\03All Of You.wav

Pre-gap length 0:00:02.86

Peak level 93.3 %
Track quality 100.0 %
Test CRC 3584E922
Copy CRC 3584E922
Copy OK

Track 4
Filename C:\Documents and Settings\user\Documenti\file flac\04Bye Bye Blackbird.wav

Pre-gap length 0:00:02.86

Peak level 100.0 %
Track quality 100.0 %
Test CRC 52A2009E
Copy CRC 52A2009E
Copy OK

Track 5
Filename C:\Documents and Settings\user\Documenti\file flac\05Tadd's Delight.wav

Pre-gap length 0:00:02.86

Peak level 100.0 %
Track quality 100.0 %
Test CRC C1E5BEF8
Copy CRC C1E5BEF8
Copy OK

Track 6
Filename C:\Documents and Settings\user\Documenti\file flac\06Dear Old Stockholm.wav

Pre-gap length 0:00:02.86

Peak level 100.0 %
Track quality 100.0 %
Test CRC E40BB4F4
Copy CRC E40BB4F4
Copy OK

Track 7
Filename C:\Documents and Settings\user\Documenti\file flac\07Two Bass Hit - Bonus Track.wav

Pre-gap length 0:00:03.86

Peak level 100.0 %
Track quality 99.9 %
Test CRC DB02D0D7
Copy CRC DB02D0D7
Copy OK

Track 8
Filename C:\Documents and Settings\user\Documenti\file flac\08Little Melonae - Bonus Track.wav

Pre-gap length 0:00:02.86

Peak level 100.0 %
Track quality 100.0 %
Test CRC 1F5D2E8F
Copy CRC 1F5D2E8F
Copy OK

Track 9
Filename C:\Documents and Settings\user\Documenti\file flac\09Budo - Bonus Track.wav

Pre-gap length 0:00:02.86

Peak level 100.0 %
Track quality 100.0 %
Test CRC 65D03F23
Copy CRC 65D03F23
Copy OK

Track 10
Filename C:\Documents and Settings\user\Documenti\file flac\10Sweet Sue, Just You - Bonus Track.wav

Pre-gap length 0:00:02.86

Peak level 100.0 %
Track quality 99.9 %
Test CRC B2BC469D
Copy CRC B2BC469D
Copy OK

No errors occured

End of status report
Содержание индексной карты (.CUE)
REM GENRE Jazz
REM DATE 2001
REM DISCID 730DAA0A
REM COMMENT "ExactAudioCopy v0.95b4"
PERFORMER "Miles Davis"
TITLE "'Round About Midnight (Remastered)"
FILE "01'Round Midnight.wav" WAVE
  TRACK 01 AUDIO
    TITLE "'Round Midnight"
    PERFORMER "Miles Davis"
    INDEX 01 00:00:00
  TRACK 02 AUDIO
    TITLE "Ah-Leu-Cha"
    PERFORMER "Miles Davis"
    INDEX 00 05:55:25
FILE "02Ah-Leu-Cha.wav" WAVE
    INDEX 01 00:00:00
  TRACK 03 AUDIO
    TITLE "All Of You"
    PERFORMER "Miles Davis"
    INDEX 00 05:50:17
FILE "03All Of You.wav" WAVE
    INDEX 01 00:00:00
  TRACK 04 AUDIO
    TITLE "Bye Bye Blackbird"
    PERFORMER "Miles Davis"
    INDEX 00 07:00:45
FILE "04Bye Bye Blackbird.wav" WAVE
    INDEX 01 00:00:00
  TRACK 05 AUDIO
    TITLE "Tadd's Delight"
    PERFORMER "Miles Davis"
    INDEX 00 07:54:40
FILE "05Tadd's Delight.wav" WAVE
    INDEX 01 00:00:00
  TRACK 06 AUDIO
    TITLE "Dear Old Stockholm"
    PERFORMER "Miles Davis"
    INDEX 00 04:26:35
FILE "06Dear Old Stockholm.wav" WAVE
    INDEX 01 00:00:00
  TRACK 07 AUDIO
    TITLE "Two Bass Hit - Bonus Track"
    PERFORMER "Miles Davis"
    INDEX 00 07:48:43
FILE "07Two Bass Hit - Bonus Track.wav" WAVE
    INDEX 01 00:00:00
  TRACK 08 AUDIO
    TITLE "Little Melonae - Bonus Track"
    PERFORMER "Miles Davis"
    INDEX 00 03:41:70
FILE "08Little Melonae - Bonus Track.wav" WAVE
    INDEX 01 00:00:00
  TRACK 09 AUDIO
    TITLE "Budo - Bonus Track"
    PERFORMER "Miles Davis"
    INDEX 00 07:19:25
FILE "09Budo - Bonus Track.wav" WAVE
    INDEX 01 00:00:00
  TRACK 10 AUDIO
    TITLE "Sweet Sue, Just You - Bonus Track"
    PERFORMER "Miles Davis"
    INDEX 00 04:14:25
FILE "10Sweet Sue, Just You - Bonus Track.wav" WAVE
    INDEX 01 00:00:00
Приватный:
Нет (DHT включён)
Размер:
308.79 Мб (323,785,197 байт) » файлов: 25
Участники:
2 раздают, 0 качают (2 участников всего)
Внешние участники:
5 раздают, 2 качают (7 участников всего) [ Обновить ]
01:54
321
Нет комментариев. Ваш будет первым!