Поиск

1958 (1997) Miles Davis & Gil Evans - Porgy and Bess {Columbia Legacy CK 65141}

1958 (1997) Miles Davis & Gil Evans - Porgy and Bess {Columbia Legacy CK 65141}
Страна-производитель диска (релиза):
USA
Дата записи диска:
22 июля - 18 августа 1958
Дата издания диска:
март 1959
Дата переиздания диска:
25 марта 1997
Издатель (лейбл):
Номер по каталогу:
CK 65141
Носитель:
CD
Битрейт аудио:
lossless
Аудиокодек:
FLAC (*.flac)
Тип рипа:
tracks+.cue
Время звучания:
58:18
Наличие сканов:
  • да
Релизёр (источник):
mrimidalv
Состав:
  • Cannonball Adderley Saxophone, Sax (Alto)
  • Teresa Alfieri Design
  • Rene Arsenault Production Assistant
  • Danny Bank Clarinet (Bass), Flute (Alto), Sax (Baritone)
  • Danny Banks Saxophone
  • Billy Barber Tuba
  • John Barber Tuba
  • Joseph Bennett Trombone
  • Phil Bodner Clarinet, Flute, Flute (Alto)
  • Paul Chambers Bass
  • Jimmy Cleveland Trombone
  • Jimmy Cobb Drums
  • Johnny Coles Trumpet
  • Miles Davis Trumpet, Flugelhorn, Performer
  • Gil Evans Arranger, Conductor, Orchestra
  • Bernie Glow Trumpet
  • Dick Hixon Trombone
  • Philly Joe Jones Drums
  • Louis Mucci Trumpet
  • Romeo Penque Clarinet, Flute, Flute (Alto)
  • Frank Rehak Trombone
  • Jerome Richardson Clarinet, Flute, Flute (Alto)
  • Ernie Royal Trumpet
  • Willie Ruff French Horn
  • Gunther Schuller Horn, French Horn
  • Julius Watkins French Horn

01. The Buzzard Song 4:07
02. Bess, You Is My Woman Now 5:10
03. Gone 3:37
04. Gone, Gone, Gone 2:03
05. Summertime 3:17
06. Oh Bess, Oh Where's My Bess? 4:28
07. Prayer (Oh Doctor Jesus) 4:39
08. Fisherman, Strawberry and Devil Crab 4:06
09. My Man's Gone Now 6:14
10. It Ain't Necessarily So 4:23
11. Here Come de Honey Man 1:18
12. I Loves You, Porgy 3:39
13. There's a Boat That's Leaving Soon for New York 3:23
14. I Loves You, Porgy 4:14
15. Gone 3:40

Лог создания рипа
EAC extraction logfile from 2. May 2006, 15:34 for CD
Miles Davis / Porgy And Bess [1997 Remastered]

Used drive  : HL-DT-STDVD-ROM GDR8163B   Adapter: 0  ID: 0
Read mode   : Secure with NO C2, accurate stream, disable cache
Read offset correction : 102
Overread into Lead-In and Lead-Out : No

Used output format : C:\Archivos de programa\FLAC\flac.exe   (User Defined Encoder)
                     320 kBit/s
                     Additional command line options :  -5 -V -T "ARTIST=%a" -T "TITLE=%t" -T "ALBUM=%g" -T "DATE=%y" -T "TRACKNUMBER=%n" -T "GENRE=%m" -T "COMMENT=EAC Flac 1.1.2 -5" %s

Other options      : 
    Fill up missing offset samples with silence : Yes
    Delete leading and trailing silent blocks : No
    Native Win32 interface for Win NT & 2000


Track  1
     Filename F:\Miles Davis - Porgy and Bess (1958) [FLAC]\01 - Buzzard Song.wav

     Pre-gap length  0:00:02.00

     Peak level 60.2 %
     Track quality 100.0 %
     Test CRC F9C9E65A
     Copy CRC F9C9E65A
     Copy OK

Track  2
     Filename F:\Miles Davis - Porgy and Bess (1958) [FLAC]\02 - Bess, You Is My Woman Now.wav

     Pre-gap length  0:00:01.98

     Peak level 49.1 %
     Track quality 100.0 %
     Test CRC 15ABB9DF
     Copy CRC 15ABB9DF
     Copy OK

Track  3
     Filename F:\Miles Davis - Porgy and Bess (1958) [FLAC]\03 - Gone.wav

     Pre-gap length  0:00:02.09

     Peak level 52.6 %
     Track quality 100.0 %
     Test CRC CEAA68A4
     Copy CRC CEAA68A4
     Copy OK

Track  4
     Filename F:\Miles Davis - Porgy and Bess (1958) [FLAC]\04 - Gone, Gone, Gone.wav

     Pre-gap length  0:00:01.34

     Peak level 44.0 %
     Track quality 99.9 %
     Test CRC 47212411
     Copy CRC 47212411
     Copy OK

Track  5
     Filename F:\Miles Davis - Porgy and Bess (1958) [FLAC]\05 - Summertime.wav

     Pre-gap length  0:00:01.86

     Peak level 46.4 %
     Track quality 100.0 %
     Test CRC 4A564E89
     Copy CRC 4A564E89
     Copy OK

Track  6
     Filename F:\Miles Davis - Porgy and Bess (1958) [FLAC]\06 - Oh Bess, Oh Where's My Bess.wav

     Pre-gap length  0:00:03.18

     Peak level 52.1 %
     Track quality 100.0 %
     Test CRC 584F1D25
     Copy CRC 584F1D25
     Copy OK

Track  7
     Filename F:\Miles Davis - Porgy and Bess (1958) [FLAC]\07 - Prayer (Oh Doctor Jesus).wav

     Pre-gap length  0:00:02.45

     Peak level 59.7 %
     Track quality 100.0 %
     Test CRC 09E93C5A
     Copy CRC 09E93C5A
     Copy OK

Track  8
     Filename F:\Miles Davis - Porgy and Bess (1958) [FLAC]\08 - Fishermen, Strawberry And Devil Crab.wav

     Pre-gap length  0:00:03.02

     Peak level 29.8 %
     Track quality 100.0 %
     Test CRC 77BA5912
     Copy CRC 77BA5912
     Copy OK

Track  9
     Filename F:\Miles Davis - Porgy and Bess (1958) [FLAC]\09 - My Man's Gone Now.wav

     Pre-gap length  0:00:00.46

     Peak level 54.2 %
     Track quality 99.9 %
     Test CRC 34D6BB60
     Copy CRC 34D6BB60
     Copy OK

Track 10
     Filename F:\Miles Davis - Porgy and Bess (1958) [FLAC]\10 - It Ain't Necessarily So.wav

     Pre-gap length  0:00:01.73

     Peak level 49.1 %
     Track quality 100.0 %
     Test CRC 09C26745
     Copy CRC 09C26745
     Copy OK

Track 11
     Filename F:\Miles Davis - Porgy and Bess (1958) [FLAC]\11 - Here Come De Honey Man.wav

     Pre-gap length  0:00:01.97

     Peak level 27.3 %
     Track quality 100.0 %
     Test CRC A5BD7626
     Copy CRC A5BD7626
     Copy OK

Track 12
     Filename F:\Miles Davis - Porgy and Bess (1958) [FLAC]\12 - I Loves You, Porgy.wav

     Pre-gap length  0:00:02.17

     Peak level 37.3 %
     Track quality 100.0 %
     Test CRC 0B45E6B1
     Copy CRC 0B45E6B1
     Copy OK

Track 13
     Filename F:\Miles Davis - Porgy and Bess (1958) [FLAC]\13 - There's A Boat That's Leaving Soon For New York.wav

     Pre-gap length  0:00:03.06

     Peak level 41.9 %
     Track quality 100.0 %
     Test CRC C0487D8B
     Copy CRC C0487D8B
     Copy OK

Track 14
     Filename F:\Miles Davis - Porgy and Bess (1958) [FLAC]\14 - I Loves You, Porgy [take 1, second version].wav

     Pre-gap length  0:00:02.74

     Peak level 42.7 %
     Track quality 100.0 %
     Test CRC 24520F94
     Copy CRC 24520F94
     Copy OK

Track 15
     Filename F:\Miles Davis - Porgy and Bess (1958) [FLAC]\15 - Gone [take 4].wav

     Pre-gap length  0:00:02.56

     Peak level 51.3 %
     Track quality 100.0 %
     Test CRC 052DA9D1
     Copy CRC 052DA9D1
     Copy OK

No errors occured


End of status report
Содержание индексной карты (.CUE)
REM GENRE Jazz
REM DATE 1958
REM DISCID CE0DD00F
REM COMMENT "ExactAudioCopy v0.95b3"
PERFORMER "Miles Davis"
TITLE "Porgy And Bess [1997 Remastered]"
FILE "01 - Buzzard Song.wav" WAVE
  TRACK 01 AUDIO
    TITLE "Buzzard Song"
    PERFORMER "Miles Davis"
    INDEX 01 00:00:00
  TRACK 02 AUDIO
    TITLE "Bess, You Is My Woman Now"
    PERFORMER "Miles Davis"
    INDEX 00 04:07:16
FILE "02 - Bess, You Is My Woman Now.wav" WAVE
    INDEX 01 00:00:00
  TRACK 03 AUDIO
    TITLE "Gone"
    PERFORMER "Miles Davis"
    INDEX 00 05:10:35
FILE "03 - Gone.wav" WAVE
    INDEX 01 00:00:00
  TRACK 04 AUDIO
    TITLE "Gone, Gone, Gone"
    PERFORMER "Miles Davis"
    INDEX 00 03:37:02
FILE "04 - Gone, Gone, Gone.wav" WAVE
    INDEX 01 00:00:00
  TRACK 05 AUDIO
    TITLE "Summertime"
    PERFORMER "Miles Davis"
    INDEX 00 02:03:47
FILE "05 - Summertime.wav" WAVE
    INDEX 01 00:00:00
  TRACK 06 AUDIO
    TITLE "Oh Bess, Oh Where's My Bess"
    PERFORMER "Miles Davis"
    INDEX 00 03:17:61
FILE "06 - Oh Bess, Oh Where's My Bess.wav" WAVE
    INDEX 01 00:00:00
  TRACK 07 AUDIO
    TITLE "Prayer (Oh Doctor Jesus)"
    PERFORMER "Miles Davis"
    INDEX 00 04:28:44
FILE "07 - Prayer (Oh Doctor Jesus).wav" WAVE
    INDEX 01 00:00:00
  TRACK 08 AUDIO
    TITLE "Fishermen, Strawberry And Devil Crab"
    PERFORMER "Miles Davis"
    INDEX 00 04:39:20
FILE "08 - Fishermen, Strawberry And Devil Crab.wav" WAVE
    INDEX 01 00:00:00
    INDEX 02 02:20:39
    INDEX 03 03:34:23
  TRACK 09 AUDIO
    TITLE "My Man's Gone Now"
    PERFORMER "Miles Davis"
    INDEX 00 04:06:53
FILE "09 - My Man's Gone Now.wav" WAVE
    INDEX 01 00:00:00
  TRACK 10 AUDIO
    TITLE "It Ain't Necessarily So"
    PERFORMER "Miles Davis"
    INDEX 00 06:14:62
FILE "10 - It Ain't Necessarily So.wav" WAVE
    INDEX 01 00:00:00
  TRACK 11 AUDIO
    TITLE "Here Come De Honey Man"
    PERFORMER "Miles Davis"
    INDEX 00 04:23:32
FILE "11 - Here Come De Honey Man.wav" WAVE
    INDEX 01 00:00:00
  TRACK 12 AUDIO
    TITLE "I Loves You, Porgy"
    PERFORMER "Miles Davis"
    INDEX 00 01:18:35
FILE "12 - I Loves You, Porgy.wav" WAVE
    INDEX 01 00:00:00
  TRACK 13 AUDIO
    TITLE "There's A Boat That's Leaving Soon For New York"
    PERFORMER "Miles Davis"
    INDEX 00 03:39:65
FILE "13 - There's A Boat That's Leaving Soon For New York.wav" WAVE
    INDEX 01 00:00:00
  TRACK 14 AUDIO
    TITLE "I Loves You, Porgy [take 1, second version]"
    PERFORMER "Miles Davis"
    INDEX 00 03:23:54
FILE "14 - I Loves You, Porgy [take 1, second version].wav" WAVE
    INDEX 01 00:00:00
  TRACK 15 AUDIO
    TITLE "Gone [take 4]"
    PERFORMER "Miles Davis"
    INDEX 00 04:14:23
FILE "15 - Gone [take 4].wav" WAVE
    INDEX 01 00:00:00
Скачивание доступно после регистрации!!
Приватный:
Нет (DHT включён)
Размер:
331.86 Мб (347,978,051 байт) » файлов: 32
Участники:
0 раздают, 0 качают (0 участников всего)
Внешние участники:
11 раздают, 4 качают (15 участников всего) [ Обновить ]
02:27
320
RSS
Нет комментариев. Ваш будет первым!