Поиск

1956-1962 Ahmad Jamal Trio - Complete Argo Sessions Vol.2 {Crazy Warthog} [24-44,1]

1956-1962 Ahmad Jamal Trio - Complete Argo Sessions Vol.2 {Crazy Warthog} [24-44,1]
Издатель (лейбл):
Битрейт аудио:
lossless
Доп. инфо:

Формат записи/Источник записи: [TR24][OF]
Издание: Remastered
Год издания/переиздания диска: 2018
Издатель (лейбл): Crazy Warthog Media
Продолжительность: 01:08:56
Наличие сканов в содержимом раздачи: Нет

Контейнер: FLAC (*.flac)
Тип рипа: tracks
Разрядность: 24/44,1
Количество каналов: 2.0

Источник (релизер): Qobuz

Лог проверки качества
foobar2000 1.3.7 / Dynamic Range Meter 1.1.1
log date: 2019-07-02 04:57:45

--------------------------------------------------------------------------------
Analyzed: Ahmad Jamal / Complete Ahmad Jamal Trio Argo Sessions Vol.2 1956-1962
--------------------------------------------------------------------------------

DR         Peak         RMS     Duration Track
--------------------------------------------------------------------------------
DR13      -0.32 dB   -16.37 dB      3:32 01-But Not for Me
DR14      -0.03 dB   -15.83 dB      2:36 02-Surrey with the Fringe on Top
DR14      -0.57 dB   -18.13 dB      3:10 03-Moonlight in Vermont
DR13       0.00 dB   -15.18 dB      2:57 04-Music! Music! Music!
DR12       0.00 dB   -14.64 dB      3:24 05-There Is No Greater Love
DR14       0.00 dB   -15.67 dB      8:09 06-Poinciana
DR14       0.00 dB   -16.79 dB      3:41 07-Woody 'N You
DR15      -0.30 dB   -18.74 dB      4:09 08-What's New-
DR12       0.00 dB   -13.88 dB      2:31 09-Too Late Now
DR12       0.00 dB   -14.42 dB      3:13 10-All the Things You Are
DR11       0.00 dB   -14.57 dB      3:43 11-Cherokee
DR12      -2.03 dB   -17.42 dB      3:27 12-It Might as Well Be Spring
DR13      -0.09 dB   -15.17 dB      2:41 13-I'll Remember April
DR13       0.00 dB   -16.52 dB      3:28 14-My Funny Valentine
DR13      -1.79 dB   -16.58 dB      3:25 15-Gone with the Wind
DR14      -0.04 dB   -17.28 dB      3:01 16-Billy Boy
DR15      -1.35 dB   -17.83 dB      3:34 17-It's You or No One
DR14      -2.46 dB   -18.37 dB      4:45 18-They Can't Take That Away from Me
DR14      -3.21 dB   -19.44 dB      3:40 19-Poor Butterfly
--------------------------------------------------------------------------------

Number of tracks:  19
Official DR value: DR13

Samplerate:        44100 Hz
Channels:          2
Bits per sample:   24
Bitrate:           815 kbps
Codec:             FLAC
================================================================================
No seeders - write personal message to M0p94ok. Any questions - support@pro-jazz.com.
Нет сидеров - пишите в личку M0p94ok. Есть вопросы - support@pro-jazz.com
12:36
346
Нет комментариев. Ваш будет первым!