Вы используете незарегистрированную версию компонента "Вкладки"!

Поиск

2017 Binker and Moses - Journey to the Mountain of Forever {Gearbox} [24-48]

2017 Binker and Moses - Journey to the Mountain of Forever {Gearbox} [24-48]
Дата записи диска:
21-22 июля 2016
Место записи:
Mark Ronson’s Zelig studio, Gearbox studio
Дата издания диска:
6 февраля 2017
Номер по каталогу:
GB1537
Битрейт аудио:
lossless
Доп. инфо:

Формат записи/Источник записи: [TR24][OF]
Наличие водяных знаков: Нет
Год издания/переиздания диска: 2017
Издатель (лейбл): Gearbox
Продолжительность: 01:21:10
Наличие сканов в содержимом раздачи: Только обложка альбома

Контейнер: FLAC (*.flac)
Тип рипа: tracks
Разрядность: 24/48
Формат: PCM
Количество каналов: 2.0

,Источник (релизер): https://www.highresaudio.com/en/album/view/3j2kqb/binker-and-moses-journey-to-the...ntain-of-forever

Лог проверки качества
foobar2000 1.3.16 / Dynamic Range Meter 1.1.1
log date: 2020-05-17 16:38:01

--------------------------------------------------------------------------------
Analyzed: Binker and Moses / Journey to the Mountain of Forever
--------------------------------------------------------------------------------

DR         Peak         RMS     Duration Track
--------------------------------------------------------------------------------
DR13      -0.90 dB   -16.61 dB      7:23 01-The Departure
DR17      -1.33 dB   -20.14 dB      6:24 02-Intoxication from the Jahvmonishi Leaves
DR18      -1.45 dB   -23.36 dB      5:23 03-Fete by the River
DR16      -1.34 dB   -20.11 dB      6:43 04-Trees on Fire
DR15      -3.65 dB   -22.26 dB      5:43 05-The Shaman's Chant
DR14      -5.43 dB   -25.89 dB      7:01 06-Leaving the Now Behind
DR13      -1.30 dB   -17.09 dB      3:55 07-The Valley of the Ultra Blacks
DR15      -8.12 dB   -27.58 dB      5:17 08-Gifts from the Vibrations of Light
DR15      -1.32 dB   -20.53 dB      5:14 09-Mysteries and Revelations
DR15      -6.92 dB   -24.64 dB      3:05 10-Ritual of the Root
DR14      -7.22 dB   -26.37 dB      2:35 11-The Voice of Besbunu
DR14      -1.39 dB   -24.23 dB      4:32 12-Echoes from the Other Side of the Mountain
DR14      -1.34 dB   -18.84 dB      5:56 13-Reverse Genesis
DR16      -1.33 dB   -21.03 dB      3:14 14-Entering the Infinite
DR18      -2.37 dB   -25.98 dB      8:53 15-At the Feet of the Mountain of Forever
--------------------------------------------------------------------------------

Number of tracks:  15
Official DR value: DR15

Samplerate:        48000 Hz
Channels:          2
Bits per sample:   24
Bitrate:           1506 kbps
Codec:             FLAC
================================================================================
Any questions - support@pro-jazz.com. Есть вопросы - support@pro-jazz.com
09:28
251
Нет комментариев. Ваш будет первым!