Поиск

1956-1962 Ahmad Jamal Trio - Complete Argo Sessions Vol.1 (2018) {Crazy Warthog} [24-44,1]

1956-1962 Ahmad Jamal Trio - Complete Argo Sessions Vol.1 (2018) {Crazy Warthog} [24-44,1]
Издатель (лейбл):
Битрейт аудио:
lossless
Доп. инфо:

Формат записи/Источник записи: [TR24][OF]
Издание: Remastered
Год издания/переиздания диска: 2018
Жанр: Jazz
Издатель (лейбл): Crazy Warthog Media
Продолжительность: 01:01:45
Наличие сканов в содержимом раздачи: Нет

Контейнер: FLAC (*.flac)
Тип рипа: tracks
Разрядность: 24/44,1
Количество каналов: 2.0

Источник (релизер): Qobuz

Лог проверки качества
foobar2000 1.3.7 / Dynamic Range Meter 1.1.1
log date: 2019-07-02 04:56:59

--------------------------------------------------------------------------------
Analyzed: Ahmad Jamal / Complete Ahmad Jamal Trio Argo Sessions Vol.1 1956-1962
--------------------------------------------------------------------------------

DR         Peak         RMS     Duration Track
--------------------------------------------------------------------------------
DR12      -0.97 dB   -14.23 dB      3:50 01-Volga Boatman
DR13      -2.31 dB   -18.04 dB      3:18 02-On Green Dolphin Street
DR11      -0.83 dB   -13.87 dB      5:27 03-How About You
DR12      -1.08 dB   -15.53 dB      2:02 04-I Just Can't See for Lookin
DR12      -1.41 dB   -15.25 dB      2:33 05-Spring Will Be a Little Late This Year
DR12      -0.57 dB   -14.57 dB      5:25 06-Beat out One
DR11      -2.60 dB   -16.51 dB      3:37 07-Maryam
DR14      -0.48 dB   -16.13 dB      5:38 08-Easy to Remember
DR12      -0.62 dB   -15.17 dB      2:48 09-Jim Loves Sue
DR14       0.00 dB   -16.85 dB      2:40 10-Secret Love
DR12       0.00 dB   -13.72 dB      1:47 11-Taking a Chance on Love
DR15       0.00 dB   -17.45 dB      5:14 12-Cheek to Cheek
DR15       0.00 dB   -17.31 dB      2:12 13-It's You or No One
DR15       0.00 dB   -18.24 dB      3:18 14-Soft Wind
DR12       0.00 dB   -15.76 dB      3:04 15-Love
DR13       0.00 dB   -16.76 dB      3:15 16-Aki and Ukthay
DR15       0.00 dB   -18.03 dB      3:59 17-Love for Sale
DR13      -4.43 dB   -21.54 dB      1:47 18-That's All
--------------------------------------------------------------------------------

Number of tracks:  18
Official DR value: DR13

Samplerate:        44100 Hz
Channels:          2
Bits per sample:   24
Bitrate:           1337 kbps
Codec:             FLAC
================================================================================
No seeders - write personal message to M0p94ok. Any questions - support@pro-jazz.com.
Нет сидеров - пишите в личку M0p94ok. Есть вопросы - support@pro-jazz.com
07:25
340
Нет комментариев. Ваш будет первым!