Поиск

1954 Antonio Carlos Jobim and Billy Blanco - Sinfonia Do Rio De Janeiro (2021) {Music Manager} [24-48]

1954 Antonio Carlos Jobim and Billy Blanco - Sinfonia Do Rio De Janeiro (2021) {Music Manager} [24-48]
Дата переиздания диска:
22 июня 2021
Издатель (лейбл):
Битрейт аудио:
lossless

Состав:
  • Antônio Carlos Jobim, Billy Blanco
  • Radamés Gnattali Orchestra
Лог проверки качества
foobar2000 1.4.6 / Dynamic Range Meter 1.1.1
log date: 2021-09-22 01:50:34
--------------------------------------------------------------------------------
Analyzed: Antonio Carlos Jobim / Sinfonia Do Rio De Janeiro
--------------------------------------------------------------------------------
DR         Peak         RMS     Duration Track
--------------------------------------------------------------------------------
DR10       0.00 dB   -12.77 dB     15:42 01-Sinfonia Do Rio De Janeiro (A Montanha - O Sol - O Mar)
DR10       0.00 dB   -11.46 dB      2:31 02-Arpoador
DR10       0.00 dB   -12.55 dB      2:18 03-Noites Do Rio
DR10       0.00 dB   -11.50 dB      2:30 04-O Samba De Amanhã
DR9        0.00 dB   -11.54 dB      1:51 05-Hino Ao Sol
DR11      -0.01 dB   -12.51 dB      2:42 06-Descendo O Morro
--------------------------------------------------------------------------------
Number of tracks:  6
Official DR value: DR10
Samplerate:        48000 Hz
Channels:          2
Bits per sample:   24
Bitrate:           954 kbps
Codec:             FLAC
================================================================================
Приватный:
Нет (DHT включён)
Размер:
197.17 Мб (206,744,127 байт) » файлов: 10
Участники:
0 раздают, 0 качают (0 участников всего)
Внешние участники:
3 раздают, 1 качают (4 участников всего) [ Обновить ]
16:36
351
Нет комментариев. Ваш будет первым!