Поиск

2022 Tord Gustavsen Trio - Opening {ECM} [24-96]

2022 Tord Gustavsen Trio - Opening {ECM} [24-96]
Дата издания диска:
8 апреля 2022
Издатель (лейбл):
Битрейт аудио:
lossless
Наличие сканов:
буклет pdf

Состав:
  • Tord Gustavsen    Composer, Piano, Programming
  • Steinar Raknes    Double Bass, Programming
  • Jarle Vespestad    Drums
  • Stefano Amerio    Mastering Engineer, Mixing, Recording
  • Manfred Eicher    Producer
Лог проверки качества
foobar2000 1.6.9 / Dynamic Range Meter 1.1.1
--------------------------------------------------------------------------------
Analyzed: Tord Gustavsen Trio / Opening
--------------------------------------------------------------------------------
DR         Peak         RMS     Duration Track
--------------------------------------------------------------------------------
DR15      -3.32 dB   -22.62 dB      3:57 01-The Circle
DR15      -0.76 dB   -21.02 dB      3:23 02-Findings / Visa från Rättvik
DR16      -2.22 dB   -24.90 dB      3:25 03-Opening
DR14      -7.11 dB   -26.64 dB      2:36 04-The Longing
DR15      -2.96 dB   -25.98 dB      5:42 05-Shepherd Song
DR14      -4.31 dB   -25.47 dB      4:20 06-Helensburgh Tango
DR15      -2.07 dB   -21.88 dB      5:27 07-Re-Opening
DR14      -3.11 dB   -26.38 dB      2:03 08-Findings II
DR16      -3.40 dB   -25.01 dB      7:04 09-Stream
DR15      -0.50 dB   -19.49 dB      3:57 10-Ritual
DR14      -0.50 dB   -22.83 dB      3:44 11-Fløytelåt / The Flute
DR16      -7.47 dB   -28.09 dB      3:03 12-Vær sterk, min sjel
--------------------------------------------------------------------------------
Number of tracks:  12
Official DR value: DR15
Samplerate:        96000 Hz
Channels:          2
Bits per sample:   24
Bitrate:           2198 kbps
Codec:             FLAC
================================================================================
Приватный:
Нет (DHT включён)
Размер:
778.67 Мб (816,490,679 байт) » файлов: 13
Участники:
0 раздают, 0 качают (0 участников всего)
Внешние участники:
19 раздают, 6 качают (25 участников всего) [ Обновить ]
22:44
486
Нет комментариев. Ваш будет первым!