Поиск

2015 PLS.Trio - East River {Echo Chamber Music} [24-96]

2015 PLS.Trio - East River {Echo Chamber Music} [24-96]
Стили:
Дата издания диска:
17 февраля 2015
Битрейт аудио:
lossless
Наличие сканов:
буклет pdf

Состав:
  • Pier Luigi Salami — Piano, Live Piano FXs, Synths
  • Martin D Fowler — Electric bass, MIDI bass, Synth bass
  • Shawn Crowder — Drums, Percussions, Electronic Drums / Percussions
Лог проверки качества
foobar2000 1.2.2 / Замер динамического диапазона (DR) 1.1.1
Дата отчёта:  2022-04-05 17:48:49
--------------------------------------------------------------------------------
Анализ:   PLS.trio / East River
--------------------------------------------------------------------------------
DR         Пики         RMS           Продолжительность трека
--------------------------------------------------------------------------------
DR9       -0.25 дБ   -12.31 дБ      4:36 ?-Yellow's Not Just A Color
DR9       -0.25 дБ   -12.02 дБ      6:48 ?-Life Of A Dugong
DR11      -0.26 дБ   -15.12 дБ      5:13 ?-Once Again
DR8       -0.25 дБ   -10.69 дБ      5:49 ?-Trieste
DR10      -1.26 дБ   -13.56 дБ      1:11 ?-Deep Blue
DR11      -0.20 дБ   -14.39 дБ     11:03 ?-East River
DR8       -0.25 дБ   -11.27 дБ      3:10 ?-Reflections Of Silence
DR12      -1.26 дБ   -17.06 дБ      3:22 ?-Back Home
DR8       -0.25 дБ   -10.33 дБ      5:38 ?-Into The Skyline
DR9       -0.25 дБ   -13.28 дБ      5:52 ?-Twice (ft Woodsy Rain)
--------------------------------------------------------------------------------
Количество треков: 10
Реальные значения DR: DR10
Частота:   96000 Гц
Каналов:   2
Разрядность:   24
Битрейт:   2709 кбит/с
Кодек:   FLAC
================================================================================
Приватный:
Нет (DHT включён)
Размер:
1.04 Гб (1,115,297,677 байт) » файлов: 13
Участники:
0 раздают, 0 качают (0 участников всего)
Внешние участники:
--- [ Обновить ]
13:59
329
Нет комментариев. Ваш будет первым!