Вы используете незарегистрированную версию компонента "Вкладки"!

Поиск

1954-1957 Sonny Clark - Moments Passed (2019) {Nagel-Heyer} [24-44,1]

1954-1957 Sonny Clark - Moments Passed (2019) {Nagel-Heyer} [24-44,1]
Стили:
Издатель (лейбл):
Битрейт аудио:
lossless
Доп. инфо:

Формат записи/Источник записи: [TR24][OF]
Издание: Remastered
Год издания/переиздания диска: 1954-1957/2019
Издатель (лейбл): Nagel-Heyer records
Продолжительность: 01:41:20
Наличие сканов в содержимом раздачи: Нет

Контейнер: FLAC (*.flac)
Тип рипа: tracks
Разрядность: 24/44,1
Количество каналов: 2.0

Источник (релизер): Qobuz

Лог проверки качества
foobar2000 1.4.3 / Dynamic Range Meter 1.1.1
log date: 2020-03-09 20:10:28

--------------------------------------------------------------------------------
Analyzed: Sonny Clark / Moments Passed
--------------------------------------------------------------------------------

DR         Peak         RMS     Duration Track
--------------------------------------------------------------------------------
DR9       -1.00 dB   -12.02 dB      4:35 01-Once in a While
DR10      -1.00 dB   -12.32 dB      7:05 02-Laconia
DR7       -1.01 dB   -10.49 dB      4:33 03-Stella by Starlight
DR11      -1.00 dB   -13.33 dB      8:32 04-Soul-Lo Blues
DR10      -1.00 dB   -13.37 dB      6:47 05-Sophisticated Lady
DR8       -1.00 dB   -11.45 dB      4:47 06-There Will Never Be Another You
DR9       -1.00 dB   -11.64 dB      3:10 07-Jumping for Jane
DR9       -1.00 dB   -11.37 dB      7:05 08-Anthropology
DR8       -1.00 dB   -11.15 dB      3:40 09-Body and Soul
DR8       -1.00 dB   -10.34 dB      6:41 10-Lover Come Back to Me
DR10      -1.00 dB   -11.60 dB      6:31 11-Cliff Craft
DR8       -1.01 dB   -10.15 dB      3:20 12-Pennies from Heaven
DR10      -1.00 dB   -14.50 dB      6:57 13-You Go to My Head
DR8       -1.00 dB   -10.86 dB     11:38 14-Billie's Blues
DR8       -1.00 dB   -10.91 dB      5:31 15-Invention
DR8       -1.00 dB   -11.14 dB      3:03 16-Yesterdays
DR10      -1.00 dB   -12.44 dB      7:33 17-Confirmation
--------------------------------------------------------------------------------

Number of tracks:  17
Official DR value: DR9

Samplerate:        44100 Hz
Channels:          2
Bits per sample:   24
Bitrate:           1784 kbps
Codec:             FLAC
================================================================================
Any questions - support@pro-jazz.com. Есть вопросы - support@pro-jazz.com
20:28
239
Нет комментариев. Ваш будет первым!