Вы используете незарегистрированную версию компонента "Вкладки"!

Поиск

1955, 1958 Bud Shank - Laurindo Almeida Quartet - Musical Moments to Remember: The Birth of the Bossa Nova (2019) {Jube Legends} [24-48]

1955, 1958 Bud Shank - Laurindo Almeida Quartet - Musical Moments to Remember: The Birth of the Bossa Nova (2019) {Jube Legends} [24-48]
Битрейт аудио:
lossless
Доп. инфо:

Формат записи/Источник записи: [TR24][OF]
Издание: Remastered
Год издания/переиздания диска: 1955-1958/2019
Издатель (лейбл): Jube Legends
Продолжительность: 00:37:26
Наличие сканов в содержимом раздачи: Нет

Контейнер: FLAC (*.flac)
Тип рипа: tracks
Разрядность: 24/48
Количество каналов: 2.0

Источник (релизер): Qobuz

Лог проверки качества
foobar2000 1.4.3 / Dynamic Range Meter 1.1.1
log date: 2020-03-07 17:39:16

--------------------------------------------------------------------------------
Analyzed: Shank-Almeida Quartet / Musical Moments to Remember: The Shank Almeida-Quartet – The Birth of the Bossa Nova (2019 Remaster)
--------------------------------------------------------------------------------

DR         Peak         RMS     Duration Track
--------------------------------------------------------------------------------
DR12       0.00 dB   -13.67 dB      3:05 01-Carioca Hills
DR9        0.00 dB   -12.07 dB      3:42 02-Cariñoso
DR11       0.00 dB   -12.26 dB      2:52 03-Atabaque
DR13       0.00 dB   -16.22 dB      4:03 04-Mood Antiqua
DR11       0.00 dB   -11.85 dB      2:30 05-Harlem Samba
DR11       0.00 dB   -13.54 dB      2:45 06-I Didn't Know What Time it Was (From "Too Many Girls")
DR11       0.00 dB   -12.82 dB      3:52 07-Lonely
DR12      -2.14 dB   -15.27 dB      2:45 08-North of the Border
DR10       0.00 dB   -12.17 dB      3:29 09-Nocturno
DR10       0.00 dB   -11.75 dB      1:57 10-The Color of Her Hair
DR12       0.00 dB   -13.94 dB      3:37 11-Rio Rhapsody
DR11       0.00 dB   -12.64 dB      2:54 12-Simpático
--------------------------------------------------------------------------------

Number of tracks:  12
Official DR value: DR11

Samplerate:        48000 Hz
Channels:          2
Bits per sample:   24
Bitrate:           786 kbps
Codec:             FLAC
================================================================================
Any questions - support@pro-jazz.com. Есть вопросы - support@pro-jazz.com
16:17
268
Нет комментариев. Ваш будет первым!