Вы используете незарегистрированную версию компонента "Вкладки"!

Поиск

1958 Sonny Clark Trio - Blues In The Night (2019) {RevOla} [24-44,1]

1958 Sonny Clark Trio - Blues In The Night (2019) {RevOla} [24-44,1]
Стили:
Дата записи диска:
7 декабря 1958
Место записи:
Rudy Van Gelder's Recording Studio, Englewood Cliffs, NJ, USA
Дата издания диска:
1979
Дата переиздания диска:
2014, 2019
Издатель (лейбл):
Битрейт аудио:
lossless
Доп. инфо:

Формат записи/Источник записи: [TR24][OF]
Издание: Remastered
Издатель (лейбл): RevOla
Продолжительность: 00:33:59
Наличие сканов в содержимом раздачи: Нет

Контейнер: FLAC (*.flac)
Тип рипа: tracks
Разрядность: 24/44,1
Количество каналов: 2.0

Источник (релизер): Qobuz

Лог проверки качества
foobar2000 1.4.3 / Dynamic Range Meter 1.1.1
log date: 2020-03-05 18:53:06

--------------------------------------------------------------------------------
Analyzed: Sonny Clark Trio / Blues In The Night
--------------------------------------------------------------------------------

DR         Peak         RMS     Duration Track
--------------------------------------------------------------------------------
DR14      -0.37 dB   -18.50 dB      4:20 01-Can't We Be Friends? (Remastered)
DR14      -0.98 dB   -17.83 dB      4:41 02-I Cover The Waterfront (Remastered)
DR15       0.00 dB   -17.15 dB      4:18 03-Somebody Loves Me (Remastered)
DR13      -0.93 dB   -15.93 dB      3:32 04-Dancing In The Dark (Remastered)
DR14      -0.96 dB   -17.53 dB      7:16 05-Blues In The Night (Alternate Master Remastered)
DR14      -0.39 dB   -17.63 dB      5:59 06-Blues In The Night (Remastered)
DR13      -1.27 dB   -15.87 dB      3:54 07-All Of You (Remastered)
--------------------------------------------------------------------------------

Number of tracks:  7
Official DR value: DR14

Samplerate:        44100 Hz
Channels:          2
Bits per sample:   24
Bitrate:           1572 kbps
Codec:             FLAC
================================================================================
Any questions - support@pro-jazz.com. Есть вопросы - support@pro-jazz.com
15:11
275
Нет комментариев. Ваш будет первым!