Поиск

1948 Jo Stafford - American Folk Songs (2019) {RevOla} [24-44.1]

1948 Jo Stafford - American Folk Songs (2019) {RevOla} [24-44.1]
Стили:
Дата издания диска:
22 октября 2019
Издатель (лейбл):
Носитель:
WEB
Формат:
PCM
Тип рипа:
tracks
Контейнер:
FLAC (*.flac)
Количество каналов:
2.0
Разрядность/ЧД:
24/44,1
Битрейт аудио:
lossless
Время звучания:
00:32:09
Наличие сканов:
только обложка

01 - Shenandoah 03:38
02 - Black Is the Color 02:58
03 - Old Joe Clark 01:43
04 - Wayfaring Stranger 03:02
05 - Barbara Allen 02:57
06 - Single Girl 02:14
07 - Red Rosey Bush 02:56
08 - I Wonder As I Wander 03:07
09 - Cripple Creek 01:30
10 - The Nightingale 03:26
11 - Johnny Has Gone For A Soldier 02:52
12 - Sourwood Mountain 01:46

Состав:
  • Jo Stafford — vocals
  • Joe Maphis — banjo
  • Paul Weston Orchestra
Лог проверки качества
foobar2000 1.4.3 / Dynamic Range Meter 1.1.1
log date: 2021-10-18 23:20:04
--------------------------------------------------------------------------------
Analyzed: Jo Stafford / American Folk Songs
--------------------------------------------------------------------------------
DR         Peak         RMS     Duration Track
--------------------------------------------------------------------------------
DR9       -0.67 dB   -13.88 dB      3:38 01-Shenandoah (Remastered)
DR10      -1.17 dB   -15.12 dB      2:59 02-Black Is the Color (Remastered)
DR13      -0.02 dB   -14.75 dB      1:43 03-Old Joe Clark. (Remastered)
DR11      -2.05 dB   -15.95 dB      3:02 04-Wayfaring Stranger (Remastered)
DR9       -4.10 dB   -15.92 dB      2:57 05-Barbara Allen (Remastered)
DR13      -0.14 dB   -14.86 dB      2:15 06-Single Girl (Remastered)
DR9       -1.79 dB   -14.97 dB      2:57 07-Red Rosey Bush (Remastered)
DR9       -2.48 dB   -15.76 dB      3:07 08-I Wonder As I Wander (Remastered)
DR13       0.00 dB   -14.88 dB      1:31 09-Cripple Creek (Remastered)
DR10      -2.01 dB   -15.34 dB      3:27 10-The Nightingale (Remastered)
DR9       -1.85 dB   -14.31 dB      2:52 11-Johnny Has Gone For A Soldier (Remastered)
DR12       0.00 dB   -15.07 dB      1:46 12-Sourwood Mountain (Remastered)
--------------------------------------------------------------------------------
Number of tracks:  12
Official DR value: DR10
Samplerate:        44100 Hz
Channels:          2
Bits per sample:   24
Bitrate:           1486 kbps
Codec:             FLAC
================================================================================
Приватный:
Нет (DHT включён)
Размер:
353.09 Мб (370,239,372 байт) » файлов: 17
Участники:
0 раздают, 0 качают (0 участников всего)
Внешние участники:
--- [ Обновить ]
11:46
457
Нет комментариев. Ваш будет первым!