Поиск

2016 Raul De Souza - Brazilian Samba Jazz {Encore Merci} [24-44.1]

2016 Raul De Souza - Brazilian Samba Jazz {Encore Merci} [24-44.1]
Дата издания диска:
26 февраля 2016
Носитель:
WEB
Формат:
PCM
Тип рипа:
tracks
Контейнер:
FLAC (*.flac)
Количество каналов:
2.0
Разрядность/ЧД:
24/44,1
Битрейт аудио:
lossless
Время звучания:
00:46:51
Наличие сканов:
только обложка

01 - Bossa Eterna 05:52
02 - Rio Loco 03:17
03 - Brazilian Samba Jazz 05:17
04 - Descendo da Mangueira 04:25
05 - Saudade do Franck 05:22
06 - Violão Quebrado 04:02
07 - Ilha do Mel 03:33
08 - Luminosa Manhã 05:33
09 - Oito e Meia 04:31
10 - Amigo JJ 04:59

Состав:
  • Drums – Mauro Martins (tracks: 1, 3, 6, 8 to 10), Zaza Desiderio (tracks: 2, 4, 5, 7)
  • Electric Bass, Bass [Fretless], Acoustic Bass – Glauco Solter
  • Guitar – Mario Conde (tracks: 10)
  • Harmonica – Gabriel Grossi (tracks: 2)
  • Piano – Julien Lallier (tracks: 1, 8, 9), Leo Montana (tracks: 2 to 7, 10)
  • Trombone – Raul De Souza
Лог проверки качества
foobar2000 1.4.3 / Dynamic Range Meter 1.1.1
log date: 2021-10-19 18:15:49
--------------------------------------------------------------------------------
Analyzed: Raul De Souza / Brazilian Samba Jazz
--------------------------------------------------------------------------------
DR         Peak         RMS     Duration Track
--------------------------------------------------------------------------------
DR10      -0.08 dB   -11.99 dB      5:53 01-Bossa Eterna
DR11      -0.08 dB   -12.48 dB      3:18 02-Rio Loco
DR12      -0.08 dB   -13.04 dB      5:17 03-Brazilian Samba Jazz
DR11      -0.08 dB   -12.40 dB      4:26 04-Descendo Da Mangueira
DR11      -0.07 dB   -12.82 dB      5:23 05-Saudade Do Franck
DR10      -0.05 dB   -10.97 dB      4:02 06-Violão Quebrado
DR11      -0.09 dB   -12.75 dB      3:33 07-Ilha Do Mel
DR12      -0.09 dB   -13.74 dB      5:34 08-Luminosa Manhã
DR11      -0.08 dB   -13.18 dB      4:31 09-Oito E Meia
DR10      -0.08 dB   -11.93 dB      4:59 10-Amigo Jj
--------------------------------------------------------------------------------
Number of tracks:  10
Official DR value: DR11
Samplerate:        44100 Hz
Channels:          2
Bits per sample:   24
Bitrate:           1422 kbps
Codec:             FLAC
================================================================================
Приватный:
Нет (DHT включён)
Размер:
506.10 Мб (530,682,918 байт) » файлов: 16
Участники:
0 раздают, 0 качают (0 участников всего)
Внешние участники:
3 раздают, 1 качают (4 участников всего) [ Обновить ]
14:56
456
Нет комментариев. Ваш будет первым!