Поиск

2011 Jenna Mammina & John R. Burr - When I'm Called Home (2019) {Blue Coast} [DSD256]

2011 Jenna Mammina & John R. Burr - When I'm Called Home (2019) {Blue Coast} [DSD256]
Дата издания диска:
25 октября 2019
Носитель:
WEB
Формат:
DSD
Тип рипа:
tracks
Контейнер:
DSF (*.dsf)
Количество каналов:
2.0
Разрядность/ЧД:
256 (11.2MHz/1bit)
Битрейт аудио:
lossless
Время звучания:
00:45:19
Наличие сканов:
только обложка

  1. Bird Alone (5:59)
  2. Down Here Below (5:46)
  3. Not to Worry (5:03)
  4. Should Have Been (5:15)
  5. Talking to the Sun (4:08)
  6. The Music is the Magic (4:39)
  7. The World Is Falling Down (3:34)
  8. Throw It Away (6:08)
  9. When I’m Called Home (4:43)
Состав:
  • Produced by Cookie Marenco & Jenna Mammina
  • Jenna Mammina: Vocals
  • John R. Burr: Piano
  • Recorded, Mixed and Mastered by Cookie Marenco
Лог проверки качества
foobar2000 1.6.5 / Замер динамического диапазона (DR) 1.1.1
Дата отчёта:  2021-10-15 17:50:41
--------------------------------------------------------------------------------
Анализ:   Jenna Mammina & John R. Burr / When I'm Called Home - Blue Coast Live
--------------------------------------------------------------------------------
DR         Пики         RMS           Продолжительность трека
--------------------------------------------------------------------------------
DR14      -9.44 дБ   -30.03 дБ      6:00 01-Bird Alone
DR16      -7.14 дБ   -29.61 дБ      5:46 02-Down Here Below
DR14      -8.15 дБ   -27.19 дБ      5:03 03-Not to Worry
DR15      -9.74 дБ   -30.00 дБ      5:15 04-Should Have Been
DR15      -6.95 дБ   -26.46 дБ      4:09 05-Talking to the Sun
DR14      -7.49 дБ   -27.76 дБ      4:39 06-The Music is the Magic
DR15      -7.26 дБ   -27.31 дБ      3:35 07-The World Is Falling Down
DR15      -8.26 дБ   -27.90 дБ      6:09 08-Throw It Away
DR15      -8.22 дБ   -29.03 дБ      4:43 09-When I'm Called Home
--------------------------------------------------------------------------------
Количество треков: 9
Реальные значения DR: DR15
Частота:   11289600 Гц / Частота PCM: 88200 Гц
Каналов:   2
Разрядность:   1
Битрейт:   22579 кбит/с
Кодек:   DSD256
================================================================================
18:06
590
Нет комментариев. Ваш будет первым!