Поиск

1937-1945 Count Basie Orchestra - Basically Basie (2005) {JSP JSP922} [4CD]

1937-1945 Count Basie Orchestra - Basically Basie (2005) {JSP JSP922} [4CD]
Стили:
Издатель (лейбл):

Треклист:

Носитель: CD
Страна-производитель диска (релиза): Великобритания
Год издания: 2005
Издатель (лейбл): JSP Records
Номер по каталогу: JSP922
Аудиокодек: FLAC (*.flac)
Тип рипа: tracks+.cue
Битрейт аудио: lossless
Продолжительность: 5:00:40
Источник (релизер): template
Наличие сканов в содержимом раздачи: нет

 
CD1 {74:30}

01. Swinging at the Daisy Chain (2:53)
02. One O'Clock Jump (3:04)
03. John's Idea (2:57)
04. Time Out (3:05)
05. Topsy (3:15)
06. Out of the Window (2:51)
07. Every Tub (3:17)
08. Swingin' the Blues (2:48)
09. Blue and Sentimental (3:14)
10. Doggin' Around (3:05)
11. Texas Shuffle (3:10)
12. Jumpin' at the Woodside (3:11)
13. Panassie Stomp (2:50)
14. Lady Be Good (3:14)
15. Taxi War Dance (2:52)
16. Volcano (2:51)
17. Ham 'n' Eggs (2:35)
18. Moten Swing (2:22)
19. Love Jumped Out (3:12)
20. Wiggle Woggie (2:40)
21. Music Makers (2:44)
22. Jitters (2:45)
23. Down, Down, Down (3:02)
24. Diggin' for Dex (3:09)
25. Taps Miller (3:24)

 
Лог создания рипа
X Lossless Decoder version 20170729 (150.3)
XLD extraction logfile from 2018-05-14 22:04:46 -0400
The Count Basie Orchestra / Basically Basie: Studio Dates 1937тАУ1945
Used drive : TSSTcorp BDDVDW SE-506CB (revision TS02)
Media type : Pressed CD
Ripper mode             : XLD Secure Ripper
Disable audio cache     : OK for the drive with a cache less than 1375KiB
Make use of C2 pointers : NO
Read offset correction  : 6
Max retry count         : 20
Gap status              : Analyzed, Appended (except HTOA)
TOC of the extracted CD
     Track |   Start  |  Length  | Start sector | End sector
    ---------------------------------------------------------
        1  | 00:00:00 | 02:52:63 |         0    |    12962
        2  | 02:52:63 | 03:03:57 |     12963    |    26744
        3  | 05:56:45 | 02:56:57 |     26745    |    40001
        4  | 08:53:27 | 03:05:09 |     40002    |    53885
        5  | 11:58:36 | 03:15:30 |     53886    |    68540
        6  | 15:13:66 | 02:50:48 |     68541    |    81338
        7  | 18:04:39 | 03:17:22 |     81339    |    96135
        8  | 21:21:61 | 02:48:11 |     96136    |   108746
        9  | 24:09:72 | 03:13:53 |    108747    |   123274
       10  | 27:23:50 | 03:05:05 |    123275    |   137154
       11  | 30:28:55 | 03:10:10 |    137155    |   151414
       12  | 33:38:65 | 03:10:63 |    151415    |   165727
       13  | 36:49:53 | 02:49:58 |    165728    |   178460
       14  | 39:39:36 | 03:14:13 |    178461    |   193023
       15  | 42:53:49 | 02:51:56 |    193024    |   205904
       16  | 45:45:30 | 02:51:19 |    205905    |   218748
       17  | 48:36:49 | 02:35:11 |    218749    |   230384
       18  | 51:11:60 | 02:21:45 |    230385    |   241004
       19  | 53:33:30 | 03:12:03 |    241005    |   255407
       20  | 56:45:33 | 02:39:44 |    255408    |   267376
       21  | 59:25:02 | 02:43:65 |    267377    |   279666
       22  | 62:08:67 | 02:45:31 |    279667    |   292072
       23  | 64:54:23 | 03:01:52 |    292073    |   305699
       24  | 67:56:00 | 03:08:48 |    305700    |   319847
       25  | 71:04:48 | 03:24:19 |    319848    |   335166
AccurateRip Summary (DiscID: 0042f75d-04b1a421-62117419)
    Track 01 : NG (total 2 submissions)
    Track 02 : NG (total 2 submissions)
    Track 03 : NG (total 2 submissions)
    Track 04 : NG (total 2 submissions)
    Track 05 : NG (total 2 submissions)
    Track 06 : NG (total 2 submissions)
    Track 07 : NG (total 2 submissions)
    Track 08 : NG (total 2 submissions)
    Track 09 : NG (total 2 submissions)
    Track 10 : NG (total 2 submissions)
    Track 11 : NG (total 2 submissions)
    Track 12 : NG (total 2 submissions)
    Track 13 : NG (total 2 submissions)
    Track 14 : NG (total 2 submissions)
    Track 15 : NG (total 2 submissions)
    Track 16 : NG (total 2 submissions)
    Track 17 : NG (total 2 submissions)
    Track 18 : NG (total 2 submissions)
    Track 19 : NG (total 2 submissions)
    Track 20 : NG (total 2 submissions)
    Track 21 : NG (total 2 submissions)
    Track 22 : NG (total 2 submissions)
    Track 23 : NG (total 2 submissions)
    Track 24 : NG (total 2 submissions)
    Track 25 : NG (total 2 submissions)
        ->0 track accurately ripped, 25 tracks not
All Tracks
    Album gain               : -5.76 dB
    Peak                     : 0.943573
    Statistics
        Read error                           : 0
        Jitter error (maybe fixed)           : 20
        Retry sector count                   : 3266
        Damaged sector count                 : 0
Track 01
    Filename : /Users/jhmac/Music/XLD rips/The Count Basie Orchestra - Basically Basieя╝Ъ Studio Dates 1937тАУ1945 (2005) [FLAC]/01 Swinging At The Daisy Chain.flac
    Pre-gap length : 00:02:00
    Track gain               : -7.07 dB
    Peak                     : 0.943085
    CRC32 hash (test run)    : ADB3D242
    CRC32 hash               : ADB3D242
    CRC32 hash (skip zero)   : C1EB73B2
    AccurateRip v1 signature : 4181F78D
    AccurateRip v2 signature : BF4ECA30
        ->Rip may not be accurate (total 2 submissions).
    Statistics
        Read error                           : 0
        Jitter error (maybe fixed)           : 0
        Retry sector count                   : 0
        Damaged sector count                 : 0
Track 02
    Filename : /Users/jhmac/Music/XLD rips/The Count Basie Orchestra - Basically Basieя╝Ъ Studio Dates 1937тАУ1945 (2005) [FLAC]/02 One O'Clock Jump.flac
    Pre-gap length : 00:02:41
    Track gain               : -3.56 dB
    Peak                     : 0.943085
    CRC32 hash (test run)    : 0858E618
    CRC32 hash               : 0858E618
    CRC32 hash (skip zero)   : 580BDDD8
    AccurateRip v1 signature : D88ABF49
    AccurateRip v2 signature : F08FFE07
        ->Rip may not be accurate (total 2 submissions).
    Statistics
        Read error                           : 0
        Jitter error (maybe fixed)           : 0
        Retry sector count                   : 0
        Damaged sector count                 : 0
Track 03
    Filename : /Users/jhmac/Music/XLD rips/The Count Basie Orchestra - Basically Basieя╝Ъ Studio Dates 1937тАУ1945 (2005) [FLAC]/03 John's Idea.flac
    Pre-gap length : 00:02:41
    Track gain               : -5.21 dB
    Peak                     : 0.918854
    CRC32 hash (test run)    : 9E97574A
    CRC32 hash               : 9E97574A
    CRC32 hash (skip zero)   : 24E026A7
    AccurateRip v1 signature : 0ECD1301
    AccurateRip v2 signature : E593550D
        ->Rip may not be accurate (total 2 submissions).
    Statistics
        Read error                           : 0
        Jitter error (maybe fixed)           : 2
        Retry sector count                   : 56
        Damaged sector count                 : 0
Track 04
    Filename : /Users/jhmac/Music/XLD rips/The Count Basie Orchestra - Basically Basieя╝Ъ Studio Dates 1937тАУ1945 (2005) [FLAC]/04 Time Out.flac
    Pre-gap length : 00:02:41
    Track gain               : -5.24 dB
    Peak                     : 0.943573
    CRC32 hash (test run)    : 19E76B1C
    CRC32 hash               : 19E76B1C
    CRC32 hash (skip zero)   : DC1A9FBA
    AccurateRip v1 signature : 8B64F555
    AccurateRip v2 signature : 9B7F3862
        ->Rip may not be accurate (total 2 submissions).
    Statistics
        Read error                           : 0
        Jitter error (maybe fixed)           : 0
        Retry sector count                   : 276
        Damaged sector count                 : 0
Track 05
    Filename : /Users/jhmac/Music/XLD rips/The Count Basie Orchestra - Basically Basieя╝Ъ Studio Dates 1937тАУ1945 (2005) [FLAC]/05 Topsy.flac
    Pre-gap length : 00:02:41
    Track gain               : -4.84 dB
    Peak                     : 0.933441
    CRC32 hash (test run)    : 6BFBDD77
    CRC32 hash               : 6BFBDD77
    CRC32 hash (skip zero)   : B24B87D2
    AccurateRip v1 signature : 3D5F102B
    AccurateRip v2 signature : 017228C8
        ->Rip may not be accurate (total 2 submissions).
    Statistics
        Read error                           : 0
        Jitter error (maybe fixed)           : 2
        Retry sector count                   : 510
        Damaged sector count                 : 0
Track 06
    Filename : /Users/jhmac/Music/XLD rips/The Count Basie Orchestra - Basically Basieя╝Ъ Studio Dates 1937тАУ1945 (2005) [FLAC]/06 Out Of The Window.flac
    Pre-gap length : 00:02:40
    Track gain               : -5.01 dB
    Peak                     : 0.942810
    CRC32 hash (test run)    : 8FF38569
    CRC32 hash               : 8FF38569
    CRC32 hash (skip zero)   : FA3970A2
    AccurateRip v1 signature : AB3C739D
    AccurateRip v2 signature : E41164F3
        ->Rip may not be accurate (total 2 submissions).
    Statistics
        Read error                           : 0
        Jitter error (maybe fixed)           : 0
        Retry sector count                   : 116
        Damaged sector count                 : 0
Track 07
    Filename : /Users/jhmac/Music/XLD rips/The Count Basie Orchestra - Basically Basieя╝Ъ Studio Dates 1937тАУ1945 (2005) [FLAC]/07 Every Tub.flac
    Pre-gap length : 00:02:41
    Track gain               : -5.72 dB
    Peak                     : 0.942993
    CRC32 hash (test run)    : 67022B66
    CRC32 hash               : 67022B66
    CRC32 hash (skip zero)   : F8F2F26E
    AccurateRip v1 signature : 6B2DBA24
    AccurateRip v2 signature : 8C790A8E
        ->Rip may not be accurate (total 2 submissions).
    Statistics
        Read error                           : 0
        Jitter error (maybe fixed)           : 0
        Retry sector count                   : 0
        Damaged sector count                 : 0
Track 08
    Filename : /Users/jhmac/Music/XLD rips/The Count Basie Orchestra - Basically Basieя╝Ъ Studio Dates 1937тАУ1945 (2005) [FLAC]/08 Swingin' The Blues.flac
    Pre-gap length : 00:02:41
    Track gain               : -5.30 dB
    Peak                     : 0.943024
    CRC32 hash (test run)    : F4B39BD5
    CRC32 hash               : F4B39BD5
    CRC32 hash (skip zero)   : 7BF1D774
    AccurateRip v1 signature : 88F74672
    AccurateRip v2 signature : EA1938EA
        ->Rip may not be accurate (total 2 submissions).
    Statistics
        Read error                           : 0
        Jitter error (maybe fixed)           : 0
        Retry sector count                   : 0
        Damaged sector count                 : 0
Track 09
    Filename : /Users/jhmac/Music/XLD rips/The Count Basie Orchestra - Basically Basieя╝Ъ Studio Dates 1937тАУ1945 (2005) [FLAC]/09 Blue And Sentimental.flac
    Pre-gap length : 00:02:41
    Track gain               : -2.46 dB
    Peak                     : 0.890015
    CRC32 hash (test run)    : 0338D263
    CRC32 hash               : 0338D263
    CRC32 hash (skip zero)   : 7E7726EF
    AccurateRip v1 signature : DDF562C4
    AccurateRip v2 signature : 1F4BD606
        ->Rip may not be accurate (total 2 submissions).
    Statistics
        Read error                           : 0
        Jitter error (maybe fixed)           : 0
        Retry sector count                   : 16
        Damaged sector count                 : 0
Track 10
    Filename : /Users/jhmac/Music/XLD rips/The Count Basie Orchestra - Basically Basieя╝Ъ Studio Dates 1937тАУ1945 (2005) [FLAC]/10 Doggin' Around.flac
    Pre-gap length : 00:02:41
    Track gain               : -6.36 dB
    Peak                     : 0.943359
    CRC32 hash (test run)    : 58D6A13D
    CRC32 hash               : 58D6A13D
    CRC32 hash (skip zero)   : A2916427
    AccurateRip v1 signature : 87433513
    AccurateRip v2 signature : 5C18FCE0
        ->Rip may not be accurate (total 2 submissions).
    Statistics
        Read error                           : 0
        Jitter error (maybe fixed)           : 1
        Retry sector count                   : 294
        Damaged sector count                 : 0
Track 11
    Filename : /Users/jhmac/Music/XLD rips/The Count Basie Orchestra - Basically Basieя╝Ъ Studio Dates 1937тАУ1945 (2005) [FLAC]/11 Texas Shuffle.flac
    Pre-gap length : 00:02:41
    Track gain               : -5.51 dB
    Peak                     : 0.943207
    CRC32 hash (test run)    : 8585F6C8
    CRC32 hash               : 8585F6C8
    CRC32 hash (skip zero)   : 78C9BBF4
    AccurateRip v1 signature : B6297B92
    AccurateRip v2 signature : 8F5C79C2
        ->Rip may not be accurate (total 2 submissions).
    Statistics
        Read error                           : 0
        Jitter error (maybe fixed)           : 2
        Retry sector count                   : 383
        Damaged sector count                 : 0
Track 12
    Filename : /Users/jhmac/Music/XLD rips/The Count Basie Orchestra - Basically Basieя╝Ъ Studio Dates 1937тАУ1945 (2005) [FLAC]/12 Jumpin' At The Woodside.flac
    Pre-gap length : 00:02:41
    Track gain               : -4.96 dB
    Peak                     : 0.678650
    CRC32 hash (test run)    : F36874D2
    CRC32 hash               : F36874D2
    CRC32 hash (skip zero)   : 501F8B6D
    AccurateRip v1 signature : 7F327508
    AccurateRip v2 signature : 1886C995
        ->Rip may not be accurate (total 2 submissions).
    Statistics
        Read error                           : 0
        Jitter error (maybe fixed)           : 2
        Retry sector count                   : 340
        Damaged sector count                 : 0
Track 13
    Filename : /Users/jhmac/Music/XLD rips/The Count Basie Orchestra - Basically Basieя╝Ъ Studio Dates 1937тАУ1945 (2005) [FLAC]/13 Panassie Stomp.flac
    Pre-gap length : 00:02:41
    Track gain               : -5.05 dB
    Peak                     : 0.890106
    CRC32 hash (test run)    : 0AA28E45
    CRC32 hash               : 0AA28E45
    CRC32 hash (skip zero)   : 7E9410A7
    AccurateRip v1 signature : CAD35C1A
    AccurateRip v2 signature : 9CF46957
        ->Rip may not be accurate (total 2 submissions).
    Statistics
        Read error                           : 0
        Jitter error (maybe fixed)           : 2
        Retry sector count                   : 0
        Damaged sector count                 : 0
Track 14
    Filename : /Users/jhmac/Music/XLD rips/The Count Basie Orchestra - Basically Basieя╝Ъ Studio Dates 1937тАУ1945 (2005) [FLAC]/14 Lady Be Good.flac
    Pre-gap length : 00:02:41
    Track gain               : -4.95 dB
    Peak                     : 0.942719
    CRC32 hash (test run)    : 1871C20C
    CRC32 hash               : 1871C20C
    CRC32 hash (skip zero)   : F0A9DCD0
    AccurateRip v1 signature : B10DC727
    AccurateRip v2 signature : 5EF5F0ED
        ->Rip may not be accurate (total 2 submissions).
    Statistics
        Read error                           : 0
        Jitter error (maybe fixed)           : 2
        Retry sector count                   : 422
        Damaged sector count                 : 0
Track 15
    Filename : /Users/jhmac/Music/XLD rips/The Count Basie Orchestra - Basically Basieя╝Ъ Studio Dates 1937тАУ1945 (2005) [FLAC]/15 Taxi War Dance.flac
    Pre-gap length : 00:02:41
    Track gain               : -2.20 dB
    Peak                     : 0.840149
    CRC32 hash (test run)    : A9804DFF
    CRC32 hash               : A9804DFF
    CRC32 hash (skip zero)   : B58B4C98
    AccurateRip v1 signature : 34875499
    AccurateRip v2 signature : E234052E
        ->Rip may not be accurate (total 2 submissions).
    Statistics
        Read error                           : 0
        Jitter error (maybe fixed)           : 0
        Retry sector count                   : 0
        Damaged sector count                 : 0
Track 16
    Filename : /Users/jhmac/Music/XLD rips/The Count Basie Orchestra - Basically Basieя╝Ъ Studio Dates 1937тАУ1945 (2005) [FLAC]/16 Volcano.flac
    Pre-gap length : 00:02:41
    Track gain               : -3.25 dB
    Peak                     : 0.840881
    CRC32 hash (test run)    : 77902B82
    CRC32 hash               : 77902B82
    CRC32 hash (skip zero)   : CC69C76A
    AccurateRip v1 signature : 117DE6CD
    AccurateRip v2 signature : B86505C5
        ->Rip may not be accurate (total 2 submissions).
    Statistics
        Read error                           : 0
        Jitter error (maybe fixed)           : 0
        Retry sector count                   : 0
        Damaged sector count                 : 0
Track 17
    Filename : /Users/jhmac/Music/XLD rips/The Count Basie Orchestra - Basically Basieя╝Ъ Studio Dates 1937тАУ1945 (2005) [FLAC]/17 Ham 'n'  Eggs.flac
    Pre-gap length : 00:02:41
    Track gain               : -8.58 dB
    Peak                     : 0.943085
    CRC32 hash (test run)    : EC2328D3
    CRC32 hash               : EC2328D3
    CRC32 hash (skip zero)   : 3AE263E1
    AccurateRip v1 signature : 14A6A2EE
    AccurateRip v2 signature : C5C38465
        ->Rip may not be accurate (total 2 submissions).
    Statistics
        Read error                           : 0
        Jitter error (maybe fixed)           : 2
        Retry sector count                   : 0
        Damaged sector count                 : 0
Track 18
    Filename : /Users/jhmac/Music/XLD rips/The Count Basie Orchestra - Basically Basieя╝Ъ Studio Dates 1937тАУ1945 (2005) [FLAC]/18 Moten Swing.flac
    Pre-gap length : 00:02:41
    Track gain               : -10.64 dB
    Peak                     : 0.943085
    CRC32 hash (test run)    : 04FD0E89
    CRC32 hash               : 04FD0E89
    CRC32 hash (skip zero)   : 5FBE999E
    AccurateRip v1 signature : 0F85E35C
    AccurateRip v2 signature : FC69435C
        ->Rip may not be accurate (total 2 submissions).
    Statistics
        Read error                           : 0
        Jitter error (maybe fixed)           : 2
        Retry sector count                   : 164
        Damaged sector count                 : 0
Track 19
    Filename : /Users/jhmac/Music/XLD rips/The Count Basie Orchestra - Basically Basieя╝Ъ Studio Dates 1937тАУ1945 (2005) [FLAC]/19 Love Jumped Out.flac
    Pre-gap length : 00:02:41
    Track gain               : -5.80 dB
    Peak                     : 0.943085
    CRC32 hash (test run)    : 8819CB33
    CRC32 hash               : 8819CB33
    CRC32 hash (skip zero)   : DAF2E2EE
    AccurateRip v1 signature : CBC803D1
    AccurateRip v2 signature : A262EBD9
        ->Rip may not be accurate (total 2 submissions).
    Statistics
        Read error                           : 0
        Jitter error (maybe fixed)           : 1
        Retry sector count                   : 279
        Damaged sector count                 : 0
Track 20
    Filename : /Users/jhmac/Music/XLD rips/The Count Basie Orchestra - Basically Basieя╝Ъ Studio Dates 1937тАУ1945 (2005) [FLAC]/20 Wiggle Woggie.flac
    Pre-gap length : 00:02:41
    Track gain               : -6.48 dB
    Peak                     : 0.943085
    CRC32 hash (test run)    : 57628196
    CRC32 hash               : 57628196
    CRC32 hash (skip zero)   : F833C2D1
    AccurateRip v1 signature : 94C1BD78
    AccurateRip v2 signature : 7019A610
        ->Rip may not be accurate (total 2 submissions).
    Statistics
        Read error                           : 0
        Jitter error (maybe fixed)           : 2
        Retry sector count                   : 410
        Damaged sector count                 : 0
Track 21
    Filename : /Users/jhmac/Music/XLD rips/The Count Basie Orchestra - Basically Basieя╝Ъ Studio Dates 1937тАУ1945 (2005) [FLAC]/21 Music Makers.flac
    Pre-gap length : 00:02:41
    Track gain               : -3.08 dB
    Peak                     : 0.920288
    CRC32 hash (test run)    : 0290458C
    CRC32 hash               : 0290458C
    CRC32 hash (skip zero)   : 1ABCD03E
    AccurateRip v1 signature : BA7F1EC0
    AccurateRip v2 signature : 3E1D02D7
        ->Rip may not be accurate (total 2 submissions).
    Statistics
        Read error                           : 0
        Jitter error (maybe fixed)           : 0
        Retry sector count                   : 0
        Damaged sector count                 : 0
Track 22
    Filename : /Users/jhmac/Music/XLD rips/The Count Basie Orchestra - Basically Basieя╝Ъ Studio Dates 1937тАУ1945 (2005) [FLAC]/22 Jitters.flac
    Pre-gap length : 00:02:41
    Track gain               : -5.12 dB
    Peak                     : 0.889984
    CRC32 hash (test run)    : 092A89F6
    CRC32 hash               : 092A89F6
    CRC32 hash (skip zero)   : 2FFD5EF0
    AccurateRip v1 signature : D36715F4
    AccurateRip v2 signature : B3FAF08F
        ->Rip may not be accurate (total 2 submissions).
    Statistics
        Read error                           : 0
        Jitter error (maybe fixed)           : 0
        Retry sector count                   : 0
        Damaged sector count                 : 0
Track 23
    Filename : /Users/jhmac/Music/XLD rips/The Count Basie Orchestra - Basically Basieя╝Ъ Studio Dates 1937тАУ1945 (2005) [FLAC]/23 Down, Down, Down.flac
    Pre-gap length : 00:02:41
    Track gain               : -5.89 dB
    Peak                     : 0.943024
    CRC32 hash (test run)    : 053E52B3
    CRC32 hash               : 053E52B3
    CRC32 hash (skip zero)   : 848DB7EC
    AccurateRip v1 signature : 0004A626
    AccurateRip v2 signature : 742841A2
        ->Rip may not be accurate (total 2 submissions).
    Statistics
        Read error                           : 0
        Jitter error (maybe fixed)           : 0
        Retry sector count                   : 0
        Damaged sector count                 : 0
Track 24
    Filename : /Users/jhmac/Music/XLD rips/The Count Basie Orchestra - Basically Basieя╝Ъ Studio Dates 1937тАУ1945 (2005) [FLAC]/24 Diggin' For Dex.flac
    Pre-gap length : 00:02:41
    Track gain               : -5.94 dB
    Peak                     : 0.943207
    CRC32 hash (test run)    : 0DDB0034
    CRC32 hash               : 0DDB0034
    CRC32 hash (skip zero)   : 6C7583D0
    AccurateRip v1 signature : 5F759FE9
    AccurateRip v2 signature : 18ED82F8
        ->Rip may not be accurate (total 2 submissions).
    Statistics
        Read error                           : 0
        Jitter error (maybe fixed)           : 0
        Retry sector count                   : 0
        Damaged sector count                 : 0
Track 25
    Filename : /Users/jhmac/Music/XLD rips/The Count Basie Orchestra - Basically Basieя╝Ъ Studio Dates 1937тАУ1945 (2005) [FLAC]/25 Taps Miller.flac
    Pre-gap length : 00:02:41
    Track gain               : -6.57 dB
    Peak                     : 0.939667
    CRC32 hash (test run)    : 363DE122
    CRC32 hash               : 363DE122
    CRC32 hash (skip zero)   : 4DB3E321
    AccurateRip v1 signature : D4E51F31
    AccurateRip v2 signature : 07DFFE69
        ->Rip may not be accurate (total 2 submissions).
    Statistics
        Read error                           : 0
        Jitter error (maybe fixed)           : 0
        Retry sector count                   : 0
        Damaged sector count                 : 0
No errors occurred
End of status report
-----BEGIN XLD SIGNATURE-----
I.5qbb_2IZR20PEyk31MzpcyfjG40GY_KXBCrJO1L4rGbzqUhtt8zT5opB8TRLmQz1OJBRfDAvbe6QdN2_k7iMnm_VzHKynMLHcZY60
-----END XLD SIGNATURE-----
 
Содержание индексной карты (.CUE)
TITLE "Basically Basie CD1"
PERFORMER "Count Basie"
CATALOG 0788065902223
REM GENRE "Jazz"
REM DATE "2005"
REM DISCID 62117419
REM REPLAYGAIN_ALBUM_GAIN -5.76 dB
REM REPLAYGAIN_ALBUM_PEAK 0.943573
FILE "01 - Swinging at the Daisy Chain.flac" WAVE
  TRACK 01 AUDIO
    TITLE "Swinging at the Daisy Chain"
    ISRC GBAJD0522001
    REM REPLAYGAIN_TRACK_GAIN -7.07 dB
    REM REPLAYGAIN_TRACK_PEAK 0.943085
    INDEX 01 00:00:00
  TRACK 02 AUDIO
    TITLE "One O'Clock Jump"
    ISRC GBAJD0522002
    REM REPLAYGAIN_TRACK_GAIN -3.56 dB
    REM REPLAYGAIN_TRACK_PEAK 0.943085
    INDEX 00 02:50:22
FILE "02 - One O'Clock Jump.flac" WAVE
    INDEX 01 00:00:00
  TRACK 03 AUDIO
    TITLE "John's Idea"
    ISRC GBAJD0522003
    REM REPLAYGAIN_TRACK_GAIN -5.21 dB
    REM REPLAYGAIN_TRACK_PEAK 0.918854
    INDEX 00 03:01:16
FILE "03 - John's Idea.flac" WAVE
    INDEX 01 00:00:00
  TRACK 04 AUDIO
    TITLE "Time Out"
    ISRC GBAJD0522004
    REM REPLAYGAIN_TRACK_GAIN -5.24 dB
    REM REPLAYGAIN_TRACK_PEAK 0.943573
    INDEX 00 02:54:16
FILE "04 - Time Out.flac" WAVE
    INDEX 01 00:00:00
  TRACK 05 AUDIO
    TITLE "Topsy"
    ISRC GBAJD0522005
    REM REPLAYGAIN_TRACK_GAIN -4.84 dB
    REM REPLAYGAIN_TRACK_PEAK 0.933441
    INDEX 00 03:02:43
FILE "05 - Topsy.flac" WAVE
    INDEX 01 00:00:00
  TRACK 06 AUDIO
    TITLE "Out of the Window"
    ISRC GBAJD0522006
    REM REPLAYGAIN_TRACK_GAIN -5.01 dB
    REM REPLAYGAIN_TRACK_PEAK 0.942810
    INDEX 00 03:12:65
FILE "06 - Out of the Window.flac" WAVE
    INDEX 01 00:00:00
  TRACK 07 AUDIO
    TITLE "Every Tub"
    ISRC GBAJD0522007
    REM REPLAYGAIN_TRACK_GAIN -5.72 dB
    REM REPLAYGAIN_TRACK_PEAK 0.942993
    INDEX 00 02:48:07
FILE "07 - Every Tub.flac" WAVE
    INDEX 01 00:00:00
  TRACK 08 AUDIO
    TITLE "Swingin' the Blues"
    ISRC GBAJD0522008
    REM REPLAYGAIN_TRACK_GAIN -5.30 dB
    REM REPLAYGAIN_TRACK_PEAK 0.943024
    INDEX 00 03:14:56
FILE "08 - Swingin' the Blues.flac" WAVE
    INDEX 01 00:00:00
  TRACK 09 AUDIO
    TITLE "Blue and Sentimental"
    ISRC GBAJD0522009
    REM REPLAYGAIN_TRACK_GAIN -2.46 dB
    REM REPLAYGAIN_TRACK_PEAK 0.890015
    INDEX 00 02:45:45
FILE "09 - Blue and Sentimental.flac" WAVE
    INDEX 01 00:00:00
  TRACK 10 AUDIO
    TITLE "Doggin' Around"
    ISRC GBAJD0522010
    REM REPLAYGAIN_TRACK_GAIN -6.36 dB
    REM REPLAYGAIN_TRACK_PEAK 0.943359
    INDEX 00 03:11:12
FILE "10 - Doggin' Around.flac" WAVE
    INDEX 01 00:00:00
  TRACK 11 AUDIO
    TITLE "Texas Shuffle"
    ISRC GBAJD0522011
    REM REPLAYGAIN_TRACK_GAIN -5.51 dB
    REM REPLAYGAIN_TRACK_PEAK 0.943207
    INDEX 00 03:02:39
FILE "11 - Texas Shuffle.flac" WAVE
    INDEX 01 00:00:00
  TRACK 12 AUDIO
    TITLE "Jumpin' at the Woodside"
    ISRC GBAJD0522012
    REM REPLAYGAIN_TRACK_GAIN -4.96 dB
    REM REPLAYGAIN_TRACK_PEAK 0.678650
    INDEX 00 03:07:44
FILE "12 - Jumpin' at the Woodside.flac" WAVE
    INDEX 01 00:00:00
  TRACK 13 AUDIO
    TITLE "Panassie Stomp"
    ISRC GBAJD0522013
    REM REPLAYGAIN_TRACK_GAIN -5.05 dB
    REM REPLAYGAIN_TRACK_PEAK 0.890106
    INDEX 00 03:08:22
FILE "13 - Panassie Stomp.flac" WAVE
    INDEX 01 00:00:00
  TRACK 14 AUDIO
    TITLE "Lady Be Good"
    ISRC GBAJD0522014
    REM REPLAYGAIN_TRACK_GAIN -4.95 dB
    REM REPLAYGAIN_TRACK_PEAK 0.942719
    INDEX 00 02:47:17
FILE "14 - Lady Be Good.flac" WAVE
    INDEX 01 00:00:00
  TRACK 15 AUDIO
    TITLE "Taxi War Dance"
    ISRC GBAJD0522015
    REM REPLAYGAIN_TRACK_GAIN -2.20 dB
    REM REPLAYGAIN_TRACK_PEAK 0.840149
    INDEX 00 03:11:47
FILE "15 - Taxi War Dance.flac" WAVE
    INDEX 01 00:00:00
  TRACK 16 AUDIO
    TITLE "Volcano"
    ISRC GBAJD0522016
    REM REPLAYGAIN_TRACK_GAIN -3.25 dB
    REM REPLAYGAIN_TRACK_PEAK 0.840881
    INDEX 00 02:49:15
FILE "16 - Volcano.flac" WAVE
    INDEX 01 00:00:00
  TRACK 17 AUDIO
    TITLE "Ham 'n' Eggs"
    ISRC GBAJD0522017
    REM REPLAYGAIN_TRACK_GAIN -8.58 dB
    REM REPLAYGAIN_TRACK_PEAK 0.943085
    INDEX 00 02:48:53
FILE "17 - Ham 'n' Eggs.flac" WAVE
    INDEX 01 00:00:00
  TRACK 18 AUDIO
    TITLE "Moten Swing"
    ISRC GBAJD0522018
    REM REPLAYGAIN_TRACK_GAIN -10.64 dB
    REM REPLAYGAIN_TRACK_PEAK 0.943085
    INDEX 00 02:32:45
FILE "18 - Moten Swing.flac" WAVE
    INDEX 01 00:00:00
  TRACK 19 AUDIO
    TITLE "Love Jumped Out"
    ISRC GBAJD0522019
    REM REPLAYGAIN_TRACK_GAIN -5.80 dB
    REM REPLAYGAIN_TRACK_PEAK 0.943085
    INDEX 00 02:19:04
FILE "19 - Love Jumped Out.flac" WAVE
    INDEX 01 00:00:00
  TRACK 20 AUDIO
    TITLE "Wiggle Woggie"
    ISRC GBAJD0522020
    REM REPLAYGAIN_TRACK_GAIN -6.48 dB
    REM REPLAYGAIN_TRACK_PEAK 0.943085
    INDEX 00 03:09:37
FILE "20 - Wiggle Woggie.flac" WAVE
    INDEX 01 00:00:00
  TRACK 21 AUDIO
    TITLE "Music Makers"
    ISRC GBAJD0522021
    REM REPLAYGAIN_TRACK_GAIN -3.08 dB
    REM REPLAYGAIN_TRACK_PEAK 0.920288
    INDEX 00 02:37:03
FILE "21 - Music Makers.flac" WAVE
    INDEX 01 00:00:00
  TRACK 22 AUDIO
    TITLE "Jitters"
    ISRC GBAJD0522022
    REM REPLAYGAIN_TRACK_GAIN -5.12 dB
    REM REPLAYGAIN_TRACK_PEAK 0.889984
    INDEX 00 02:41:24
FILE "22 - Jitters.flac" WAVE
    INDEX 01 00:00:00
  TRACK 23 AUDIO
    TITLE "Down, Down, Down"
    ISRC GBAJD0522023
    REM REPLAYGAIN_TRACK_GAIN -5.89 dB
    REM REPLAYGAIN_TRACK_PEAK 0.943024
    INDEX 00 02:42:65
FILE "23 - Down, Down, Down.flac" WAVE
    INDEX 01 00:00:00
  TRACK 24 AUDIO
    TITLE "Diggin' for Dex"
    ISRC GBAJD0522024
    REM REPLAYGAIN_TRACK_GAIN -5.94 dB
    REM REPLAYGAIN_TRACK_PEAK 0.943207
    INDEX 00 02:59:11
FILE "24 - Diggin' for Dex.flac" WAVE
    INDEX 01 00:00:00
  TRACK 25 AUDIO
    TITLE "Taps Miller"
    ISRC GBAJD0522025
    REM REPLAYGAIN_TRACK_GAIN -6.57 dB
    REM REPLAYGAIN_TRACK_PEAK 0.939667
    INDEX 00 03:06:07
FILE "25 - Taps Miller.flac" WAVE
    INDEX 01 00:00:00
 
CD2 {76:43}

01. Honeysuckle Rose (3:01)
02. Roseland Shuffle (2:36)
03. Smarty (2:44)
04. Shorty George (2:47)
05. Cherokee: Part 1 (3:14)
06. Cherokee: Part 2 (3:07)
07. The Apple Jump (2:37)
08. I Never Knew (2:42)
09. Tickle Toe (2:41)
10. Louisiana (2:28)
11. Easy Does It (3:29)
12. Let Me See (2:48)
13. Gone with "What" Wind? (2:49)
14. Superchief (3:26)
15. The World Is Mad: Part 1 (2:41)
16. The World Is Mad: Part 2 (2:52)
17. Five O'Clock Whistle (3:03)
18. Broadway (2:58)
19. Rockin' the Blues (3:10)
20. Beau Brummel (3:01)
21. Jump the Blues Away (2:58)
22. 9.20 Special (3:09)
23. Fiesta in Blue (3:07)
24. Somethin' New (2:51)
25. Feather Merchant (2:54)
26. Ain't That the Truth? (3:30)

 
Лог создания рипа
X Lossless Decoder version 20170729 (150.3)
XLD extraction logfile from 2018-05-15 10:35:37 -0400
The Count Basie Orchestra / Basically Basie: Studio Dates 1937тАУ1945
Used drive : TSSTcorp BDDVDW SE-506CB (revision TS02)
Media type : Pressed CD
Ripper mode             : XLD Secure Ripper
Disable audio cache     : OK for the drive with a cache less than 1375KiB
Make use of C2 pointers : NO
Read offset correction  : 6
Max retry count         : 20
Gap status              : Analyzed, Appended (except HTOA)
TOC of the extracted CD
     Track |   Start  |  Length  | Start sector | End sector
    ---------------------------------------------------------
        1  | 00:00:00 | 03:01:22 |         0    |    13596
        2  | 03:01:22 | 02:35:51 |     13597    |    25272
        3  | 05:36:73 | 02:43:57 |     25273    |    37554
        4  | 08:20:55 | 02:47:23 |     37555    |    50102
        5  | 11:08:03 | 03:13:57 |     50103    |    64634
        6  | 14:21:60 | 03:07:10 |     64635    |    78669
        7  | 17:28:70 | 02:36:60 |     78670    |    90429
        8  | 20:05:55 | 02:42:05 |     90430    |   102584
        9  | 22:47:60 | 02:40:72 |    102585    |   114656
       10  | 25:28:57 | 02:27:48 |    114657    |   125729
       11  | 27:56:30 | 03:29:36 |    125730    |   141440
       12  | 31:25:66 | 02:48:10 |    141441    |   154050
       13  | 34:14:01 | 02:48:45 |    154051    |   166695
       14  | 37:02:46 | 03:26:05 |    166696    |   182150
       15  | 40:28:51 | 02:40:62 |    182151    |   194212
       16  | 43:09:38 | 02:51:59 |    194213    |   207096
       17  | 46:01:22 | 03:02:62 |    207097    |   220808
       18  | 49:04:09 | 02:58:09 |    220809    |   234167
       19  | 52:02:18 | 03:10:26 |    234168    |   248443
       20  | 55:12:44 | 03:00:55 |    248444    |   261998
       21  | 58:13:24 | 02:58:05 |    261999    |   275353
       22  | 61:11:29 | 03:09:25 |    275354    |   289553
       23  | 64:20:54 | 03:06:71 |    289554    |   303574
       24  | 67:27:50 | 02:50:46 |    303575    |   316370
       25  | 70:18:21 | 02:54:16 |    316371    |   329436
       26  | 73:12:37 | 03:29:60 |    329437    |   345171
List of alternate offset correction values
        #  | Absolute | Relative | Confidence
    ------------------------------------------
        1  |    -12   |    -18   |      2
AccurateRip Summary (DiscID: 0045ca47-051bc05f-7111fa1a)
    Track 01 : OK (v2, confidence 2/4)
    Track 02 : OK (v2, confidence 2/4)
    Track 03 : OK (v2, confidence 2/4)
    Track 04 : OK (v2, confidence 2/4)
    Track 05 : OK (v2, confidence 2/4)
    Track 06 : OK (v2, confidence 2/4)
    Track 07 : NG (total 2 submissions)
    Track 08 : NG (total 2 submissions)
    Track 09 : NG (total 2 submissions)
    Track 10 : NG (total 2 submissions)
    Track 11 : NG (total 2 submissions)
    Track 12 : NG (total 2 submissions)
    Track 13 : NG (total 2 submissions)
    Track 14 : NG (total 2 submissions)
    Track 15 : NG (total 2 submissions)
    Track 16 : NG (total 2 submissions)
    Track 17 : NG (total 2 submissions)
    Track 18 : NG (total 2 submissions)
    Track 19 : NG (total 2 submissions)
    Track 20 : NG (total 2 submissions)
    Track 21 : NG (total 2 submissions)
    Track 22 : NG (total 2 submissions)
    Track 23 : NG (total 2 submissions)
    Track 24 : NG (total 2 submissions)
    Track 25 : NG (total 2 submissions)
    Track 26 : NG (total 2 submissions)
        ->6 tracks accurately ripped, 20 tracks not
All Tracks
    Album gain               : -6.44 dB
    Peak                     : 0.943359
    Statistics
        Read error                           : 0
        Jitter error (maybe fixed)           : 19
        Retry sector count                   : 3449
        Damaged sector count                 : 0
Track 01
    Filename : /Users/jhmac/Music/XLD rips/The Count Basie Orchestra - Basically Basieя╝Ъ Studio Dates 1937тАУ1945 (2005) [FLAC]/01 Honeysuckle Rose.flac
    Pre-gap length : 00:02:00
    Track gain               : -5.61 dB
    Peak                     : 0.942657
    CRC32 hash (test run)    : 817EFF99
    CRC32 hash               : 817EFF99
    CRC32 hash (skip zero)   : 427F5E54
    AccurateRip v1 signature : 01E3A9A7
    AccurateRip v2 signature : C53AF2B4
        ->Accurately ripped (v2, confidence 2/4)
    Statistics
        Read error                           : 0
        Jitter error (maybe fixed)           : 0
        Retry sector count                   : 0
        Damaged sector count                 : 0
Track 02
    Filename : /Users/jhmac/Music/XLD rips/The Count Basie Orchestra - Basically Basieя╝Ъ Studio Dates 1937тАУ1945 (2005) [FLAC]/02 Roseland Shuffle.flac
    Pre-gap length : 00:02:41
    Track gain               : -4.93 dB
    Peak                     : 0.942383
    CRC32 hash (test run)    : 02FE8726
    CRC32 hash               : 02FE8726
    CRC32 hash (skip zero)   : 77B6B763
    AccurateRip v1 signature : 8C4126EA
    AccurateRip v2 signature : FADC824F
        ->Accurately ripped (v2, confidence 2/4)
    Statistics
        Read error                           : 0
        Jitter error (maybe fixed)           : 0
        Retry sector count                   : 0
        Damaged sector count                 : 0
Track 03
    Filename : /Users/jhmac/Music/XLD rips/The Count Basie Orchestra - Basically Basieя╝Ъ Studio Dates 1937тАУ1945 (2005) [FLAC]/03 Smarty.flac
    Pre-gap length : 00:02:41
    Track gain               : -6.05 dB
    Peak                     : 0.840515
    CRC32 hash (test run)    : A02D1E61
    CRC32 hash               : A02D1E61
    CRC32 hash (skip zero)   : CE2FD870
    AccurateRip v1 signature : F193ACB5
    AccurateRip v2 signature : 85EA553E
        ->Accurately ripped (v2, confidence 2/4)
    Statistics
        Read error                           : 0
        Jitter error (maybe fixed)           : 0
        Retry sector count                   : 0
        Damaged sector count                 : 0
Track 04
    Filename : /Users/jhmac/Music/XLD rips/The Count Basie Orchestra - Basically Basieя╝Ъ Studio Dates 1937тАУ1945 (2005) [FLAC]/04 Shorty George.flac
    Pre-gap length : 00:02:41
    Track gain               : -8.61 dB
    Peak                     : 0.943085
    CRC32 hash (test run)    : 550C0FFF
    CRC32 hash               : 550C0FFF
    CRC32 hash (skip zero)   : B017A9B5
    AccurateRip v1 signature : C6BE47F5
    AccurateRip v2 signature : 4F93F024
        ->Accurately ripped (v2, confidence 2/4)
    Statistics
        Read error                           : 0
        Jitter error (maybe fixed)           : 1
        Retry sector count                   : 364
        Damaged sector count                 : 0
Track 05
    Filename : /Users/jhmac/Music/XLD rips/The Count Basie Orchestra - Basically Basieя╝Ъ Studio Dates 1937тАУ1945 (2005) [FLAC]/05 Cherokeeя╝Ъ Part 1.flac
    Pre-gap length : 00:02:41
    Track gain               : -4.60 dB
    Peak                     : 0.943054
    CRC32 hash (test run)    : F24955FA
    CRC32 hash               : F24955FA
    CRC32 hash (skip zero)   : 7F7F4258
    AccurateRip v1 signature : 06F6C0CF
    AccurateRip v2 signature : 344CEFB2
        ->Accurately ripped (v2, confidence 2/4)
    Statistics
        Read error                           : 0
        Jitter error (maybe fixed)           : 2
        Retry sector count                   : 0
        Damaged sector count                 : 0
Track 06
    Filename : /Users/jhmac/Music/XLD rips/The Count Basie Orchestra - Basically Basieя╝Ъ Studio Dates 1937тАУ1945 (2005) [FLAC]/06 Cherokeeя╝Ъ Part 2.flac
    Pre-gap length : 00:02:41
    Track gain               : -2.61 dB
    Peak                     : 0.840393
    CRC32 hash (test run)    : 95E8E4ED
    CRC32 hash               : 95E8E4ED
    CRC32 hash (skip zero)   : 32C619A6
    AccurateRip v1 signature : F54E465A
    AccurateRip v2 signature : 7B207111
        ->Accurately ripped (v2, confidence 2/4)
    Statistics
        Read error                           : 0
        Jitter error (maybe fixed)           : 2
        Retry sector count                   : 440
        Damaged sector count                 : 0
Track 07
    Filename : /Users/jhmac/Music/XLD rips/The Count Basie Orchestra - Basically Basieя╝Ъ Studio Dates 1937тАУ1945 (2005) [FLAC]/07 The Apple Jump.flac
    Pre-gap length : 00:02:41
    Track gain               : -8.20 dB
    Peak                     : 0.942413
    CRC32 hash (test run)    : 21D4738F
    CRC32 hash               : 21D4738F
    CRC32 hash (skip zero)   : CB699576
    AccurateRip v1 signature : DBC1D85B
    AccurateRip v2 signature : 36345C8E
        ->Rip may not be accurate (total 2 submissions).
    Statistics
        Read error                           : 0
        Jitter error (maybe fixed)           : 0
        Retry sector count                   : 0
        Damaged sector count                 : 0
Track 08
    Filename : /Users/jhmac/Music/XLD rips/The Count Basie Orchestra - Basically Basieя╝Ъ Studio Dates 1937тАУ1945 (2005) [FLAC]/08 I Never Knew.flac
    Pre-gap length : 00:02:41
    Track gain               : -7.10 dB
    Peak                     : 0.943329
    CRC32 hash (test run)    : F0AFABCB
    CRC32 hash               : F0AFABCB
    CRC32 hash (skip zero)   : F45CF303
    AccurateRip v1 signature : 2C0280AA
    AccurateRip v2 signature : 6471C5CB
        ->Rip may not be accurate (total 2 submissions).
    Statistics
        Read error                           : 0
        Jitter error (maybe fixed)           : 1
        Retry sector count                   : 0
        Damaged sector count                 : 0
Track 09
    Filename : /Users/jhmac/Music/XLD rips/The Count Basie Orchestra - Basically Basieя╝Ъ Studio Dates 1937тАУ1945 (2005) [FLAC]/09 Tickle Toe.flac
    Pre-gap length : 00:02:40
    Track gain               : -7.60 dB
    Peak                     : 0.894165
    CRC32 hash (test run)    : E43B28B7
    CRC32 hash               : E43B28B7
    CRC32 hash (skip zero)   : 920A6514
    AccurateRip v1 signature : 8E194278
    AccurateRip v2 signature : 1146CF23
        ->Rip may not be accurate (total 2 submissions).
    Statistics
        Read error                           : 0
        Jitter error (maybe fixed)           : 2
        Retry sector count                   : 16
        Damaged sector count                 : 0
Track 10
    Filename : /Users/jhmac/Music/XLD rips/The Count Basie Orchestra - Basically Basieя╝Ъ Studio Dates 1937тАУ1945 (2005) [FLAC]/10 Louisiana.flac
    Pre-gap length : 00:02:41
    Track gain               : -6.34 dB
    Peak                     : 0.931641
    CRC32 hash (test run)    : 7D1F28ED
    CRC32 hash               : 7D1F28ED
    CRC32 hash (skip zero)   : 25C8E7B7
    AccurateRip v1 signature : B9256E09
    AccurateRip v2 signature : 35B674A1
        ->Rip may not be accurate (total 2 submissions).
    Statistics
        Read error                           : 0
        Jitter error (maybe fixed)           : 0
        Retry sector count                   : 0
        Damaged sector count                 : 0
Track 11
    Filename : /Users/jhmac/Music/XLD rips/The Count Basie Orchestra - Basically Basieя╝Ъ Studio Dates 1937тАУ1945 (2005) [FLAC]/11 Easy Does It.flac
    Pre-gap length : 00:02:41
    Track gain               : -3.33 dB
    Peak                     : 0.839996
    CRC32 hash (test run)    : B517654C
    CRC32 hash               : B517654C
    CRC32 hash (skip zero)   : EC42D8F6
    AccurateRip v1 signature : F988C8B1
    AccurateRip v2 signature : D8484635
        ->Rip may not be accurate (total 2 submissions).
    Statistics
        Read error                           : 0
        Jitter error (maybe fixed)           : 1
        Retry sector count                   : 420
        Damaged sector count                 : 0
Track 12
    Filename : /Users/jhmac/Music/XLD rips/The Count Basie Orchestra - Basically Basieя╝Ъ Studio Dates 1937тАУ1945 (2005) [FLAC]/12 Let Me See.flac
    Pre-gap length : 00:02:41
    Track gain               : -6.41 dB
    Peak                     : 0.943329
    CRC32 hash (test run)    : 333587F0
    CRC32 hash               : 333587F0
    CRC32 hash (skip zero)   : FF075A2B
    AccurateRip v1 signature : 71D5DAFF
    AccurateRip v2 signature : 304C8AE0
        ->Rip may not be accurate (total 2 submissions).
    Statistics
        Read error                           : 0
        Jitter error (maybe fixed)           : 0
        Retry sector count                   : 0
        Damaged sector count                 : 0
Track 13
    Filename : /Users/jhmac/Music/XLD rips/The Count Basie Orchestra - Basically Basieя╝Ъ Studio Dates 1937тАУ1945 (2005) [FLAC]/13 Gone With 'What' Wind.flac
    Pre-gap length : 00:02:41
    Track gain               : -6.53 dB
    Peak                     : 0.938416
    CRC32 hash (test run)    : 748DA660
    CRC32 hash               : 748DA660
    CRC32 hash (skip zero)   : 7F51CB37
    AccurateRip v1 signature : 383C9F00
    AccurateRip v2 signature : 2B6A5451
        ->Rip may not be accurate (total 2 submissions).
    Statistics
        Read error                           : 0
        Jitter error (maybe fixed)           : 1
        Retry sector count                   : 366
        Damaged sector count                 : 0
Track 14
    Filename : /Users/jhmac/Music/XLD rips/The Count Basie Orchestra - Basically Basieя╝Ъ Studio Dates 1937тАУ1945 (2005) [FLAC]/14 Superchief.flac
    Pre-gap length : 00:02:41
    Track gain               : -6.05 dB
    Peak                     : 0.943024
    CRC32 hash (test run)    : F6082F01
    CRC32 hash               : F6082F01
    CRC32 hash (skip zero)   : 45E0FFED
    AccurateRip v1 signature : 48BB7493
    AccurateRip v2 signature : CBFB6339
        ->Rip may not be accurate (total 2 submissions).
    Statistics
        Read error                           : 0
        Jitter error (maybe fixed)           : 0
        Retry sector count                   : 0
        Damaged sector count                 : 0
Track 15
    Filename : /Users/jhmac/Music/XLD rips/The Count Basie Orchestra - Basically Basieя╝Ъ Studio Dates 1937тАУ1945 (2005) [FLAC]/15 The World Is Madя╝Ъ Part 1.flac
    Pre-gap length : 00:02:40
    Track gain               : -7.83 dB
    Peak                     : 0.943085
    CRC32 hash (test run)    : BAA6F775
    CRC32 hash               : BAA6F775
    CRC32 hash (skip zero)   : 625ABD2E
    AccurateRip v1 signature : 264438EE
    AccurateRip v2 signature : A55E7901
        ->Rip may not be accurate (total 2 submissions).
    Statistics
        Read error                           : 0
        Jitter error (maybe fixed)           : 0
        Retry sector count                   : 0
        Damaged sector count                 : 0
Track 16
    Filename : /Users/jhmac/Music/XLD rips/The Count Basie Orchestra - Basically Basieя╝Ъ Studio Dates 1937тАУ1945 (2005) [FLAC]/16 The World Is Madя╝Ъ Part 2.flac
    Pre-gap length : 00:02:41
    Track gain               : -6.43 dB
    Peak                     : 0.840271
    CRC32 hash (test run)    : 0778B9A7
    CRC32 hash               : 0778B9A7
    CRC32 hash (skip zero)   : 462EC54D
    AccurateRip v1 signature : 2230167E
    AccurateRip v2 signature : FD252074
        ->Rip may not be accurate (total 2 submissions).
    Statistics
        Read error                           : 0
        Jitter error (maybe fixed)           : 0
        Retry sector count                   : 0
        Damaged sector count                 : 0
Track 17
    Filename : /Users/jhmac/Music/XLD rips/The Count Basie Orchestra - Basically Basieя╝Ъ Studio Dates 1937тАУ1945 (2005) [FLAC]/17 Five O'Clock Whistle.flac
    Pre-gap length : 00:02:41
    Track gain               : -6.00 dB
    Peak                     : 0.893158
    CRC32 hash (test run)    : 69324FAE
    CRC32 hash               : 69324FAE
    CRC32 hash (skip zero)   : E21953DD
    AccurateRip v1 signature : 63008B9E
    AccurateRip v2 signature : 6D49CD1B
        ->Rip may not be accurate (total 2 submissions).
    Statistics
        Read error                           : 0
        Jitter error (maybe fixed)           : 3
        Retry sector count                   : 450
        Damaged sector count                 : 0
Track 18
    Filename : /Users/jhmac/Music/XLD rips/The Count Basie Orchestra - Basically Basieя╝Ъ Studio Dates 1937тАУ1945 (2005) [FLAC]/18 Broadway.flac
    Pre-gap length : 00:02:41
    Track gain               : -4.68 dB
    Peak                     : 0.904358
    CRC32 hash (test run)    : 7AE3C92C
    CRC32 hash               : 7AE3C92C
    CRC32 hash (skip zero)   : 77BA3E4B
    AccurateRip v1 signature : 502FC220
    AccurateRip v2 signature : 9ACD93F6
        ->Rip may not be accurate (total 2 submissions).
    Statistics
        Read error                           : 0
        Jitter error (maybe fixed)           : 0
        Retry sector count                   : 0
        Damaged sector count                 : 0
Track 19
    Filename : /Users/jhmac/Music/XLD rips/The Count Basie Orchestra - Basically Basieя╝Ъ Studio Dates 1937тАУ1945 (2005) [FLAC]/19 Rockin' The Blues.flac
    Pre-gap length : 00:02:41
    Track gain               : -4.56 dB
    Peak                     : 0.866821
    CRC32 hash (test run)    : BBBBA943
    CRC32 hash               : BBBBA943
    CRC32 hash (skip zero)   : BF8C8562
    AccurateRip v1 signature : A13397DB
    AccurateRip v2 signature : 6BD5425F
        ->Rip may not be accurate (total 2 submissions).
    Statistics
        Read error                           : 0
        Jitter error (maybe fixed)           : 1
        Retry sector count                   : 158
        Damaged sector count                 : 0
Track 20
    Filename : /Users/jhmac/Music/XLD rips/The Count Basie Orchestra - Basically Basieя╝Ъ Studio Dates 1937тАУ1945 (2005) [FLAC]/20 Beau Brummel.flac
    Pre-gap length : 00:02:41
    Track gain               : -5.31 dB
    Peak                     : 0.921570
    CRC32 hash (test run)    : F0459F2E
    CRC32 hash               : F0459F2E
    CRC32 hash (skip zero)   : 2813984B
    AccurateRip v1 signature : C9C828D9
    AccurateRip v2 signature : 9E78B73E
        ->Rip may not be accurate (total 2 submissions).
    Statistics
        Read error                           : 0
        Jitter error (maybe fixed)           : 0
        Retry sector count                   : 0
        Damaged sector count                 : 0
Track 21
    Filename : /Users/jhmac/Music/XLD rips/The Count Basie Orchestra - Basically Basieя╝Ъ Studio Dates 1937тАУ1945 (2005) [FLAC]/21 Jump The Blues Away.flac
    Pre-gap length : 00:02:40
    Track gain               : -4.92 dB
    Peak                     : 0.902496
    CRC32 hash (test run)    : 053E2149
    CRC32 hash               : 053E2149
    CRC32 hash (skip zero)   : 5F9B144E
    AccurateRip v1 signature : 0661A8C2
    AccurateRip v2 signature : 95289402
        ->Rip may not be accurate (total 2 submissions).
    Statistics
        Read error                           : 0
        Jitter error (maybe fixed)           : 0
        Retry sector count                   : 0
        Damaged sector count                 : 0
Track 22
    Filename : /Users/jhmac/Music/XLD rips/The Count Basie Orchestra - Basically Basieя╝Ъ Studio Dates 1937тАУ1945 (2005) [FLAC]/22 9.20 Special.flac
    Pre-gap length : 00:02:41
    Track gain               : -5.19 dB
    Peak                     : 0.943359
    CRC32 hash (test run)    : B5672AEE
    CRC32 hash               : B5672AEE
    CRC32 hash (skip zero)   : D63D48C8
    AccurateRip v1 signature : F04C43C8
    AccurateRip v2 signature : 9F2BCA25
        ->Rip may not be accurate (total 2 submissions).
    Statistics
        Read error                           : 0
        Jitter error (maybe fixed)           : 1
        Retry sector count                   : 140
        Damaged sector count                 : 0
Track 23
    Filename : /Users/jhmac/Music/XLD rips/The Count Basie Orchestra - Basically Basieя╝Ъ Studio Dates 1937тАУ1945 (2005) [FLAC]/23 Fiesta In Blue.flac
    Pre-gap length : 00:02:41
    Track gain               : -7.30 dB
    Peak                     : 0.907654
    CRC32 hash (test run)    : F03E850F
    CRC32 hash               : F03E850F
    CRC32 hash (skip zero)   : 6C1FE67D
    AccurateRip v1 signature : 42174B4F
    AccurateRip v2 signature : 3E7841C1
        ->Rip may not be accurate (total 2 submissions).
    Statistics
        Read error                           : 0
        Jitter error (maybe fixed)           : 2
        Retry sector count                   : 884
        Damaged sector count                 : 0
Track 24
    Filename : /Users/jhmac/Music/XLD rips/The Count Basie Orchestra - Basically Basieя╝Ъ Studio Dates 1937тАУ1945 (2005) [FLAC]/24 Somethin' New.flac
    Pre-gap length : 00:02:41
    Track gain               : -5.85 dB
    Peak                     : 0.907379
    CRC32 hash (test run)    : 1E222B21
    CRC32 hash               : 1E222B21
    CRC32 hash (skip zero)   : 7E1D04D1
    AccurateRip v1 signature : 6E9CB268
    AccurateRip v2 signature : DB055C73
        ->Rip may not be accurate (total 2 submissions).
    Statistics
        Read error                           : 0
        Jitter error (maybe fixed)           : 0
        Retry sector count                   : 0
        Damaged sector count                 : 0
Track 25
    Filename : /Users/jhmac/Music/XLD rips/The Count Basie Orchestra - Basically Basieя╝Ъ Studio Dates 1937тАУ1945 (2005) [FLAC]/25 Feather Merchant.flac
    Pre-gap length : 00:02:41
    Track gain               : -6.80 dB
    Peak                     : 0.943024
    CRC32 hash (test run)    : F298066E
    CRC32 hash               : F298066E
    CRC32 hash (skip zero)   : 53413A3B
    AccurateRip v1 signature : 0FA5CABC
    AccurateRip v2 signature : D2DE1DED
        ->Rip may not be accurate (total 2 submissions).
    Statistics
        Read error                           : 0
        Jitter error (maybe fixed)           : 0
        Retry sector count                   : 0
        Damaged sector count                 : 0
Track 26
    Filename : /Users/jhmac/Music/XLD rips/The Count Basie Orchestra - Basically Basieя╝Ъ Studio Dates 1937тАУ1945 (2005) [FLAC]/26 Ain't That The Truth.flac
    Pre-gap length : 00:02:41
    Track gain               : -9.35 dB
    Peak                     : 0.943085
    CRC32 hash (test run)    : 0D38DD04
    CRC32 hash               : 0D38DD04
    CRC32 hash (skip zero)   : ADED9243
    AccurateRip v1 signature : 9923169C
    AccurateRip v2 signature : 86EAA397
        ->Rip may not be accurate (total 2 submissions).
    Statistics
        Read error                           : 0
        Jitter error (maybe fixed)           : 2
        Retry sector count                   : 211
        Damaged sector count                 : 0
No errors occurred
End of status report
-----BEGIN XLD SIGNATURE-----
81CkS9mHVxW1bYPAdIbJmIS_EsAt2TW3F6.aAcZSs_8zLbWFhf0l16NZBCuSzP9FEGnhFSdszAWIKTvsg_j_lGlGaOzfb33d5B4YtTS
-----END XLD SIGNATURE-----
 
Содержание индексной карты (.CUE)
TITLE "Basically Basie CD2"
PERFORMER "Count Basie"
CATALOG 0788065902223
REM GENRE "Jazz"
REM DATE "2005"
REM DISCID 7111FA1A
REM REPLAYGAIN_ALBUM_GAIN -6.44 dB
REM REPLAYGAIN_ALBUM_PEAK 0.943359
FILE "01 - Honeysuckle Rose.flac" WAVE
  TRACK 01 AUDIO
    TITLE "Honeysuckle Rose"
    ISRC GBAJD0522026
    REM REPLAYGAIN_TRACK_GAIN -5.61 dB
    REM REPLAYGAIN_TRACK_PEAK 0.942657
    INDEX 01 00:00:00
  TRACK 02 AUDIO
    TITLE "Roseland Shuffle"
    ISRC GBAJD0522027
    REM REPLAYGAIN_TRACK_GAIN -4.93 dB
    REM REPLAYGAIN_TRACK_PEAK 0.942383
    INDEX 00 02:58:56
FILE "02 - Roseland Shuffle.flac" WAVE
    INDEX 01 00:00:00
  TRACK 03 AUDIO
    TITLE "Smarty"
    ISRC GBAJD0522028
    REM REPLAYGAIN_TRACK_GAIN -6.05 dB
    REM REPLAYGAIN_TRACK_PEAK 0.840515
    INDEX 00 02:33:10
FILE "03 - Smarty.flac" WAVE
    INDEX 01 00:00:00
  TRACK 04 AUDIO
    TITLE "Shorty George"
    ISRC GBAJD0522029
    REM REPLAYGAIN_TRACK_GAIN -8.61 dB
    REM REPLAYGAIN_TRACK_PEAK 0.943085
    INDEX 00 02:41:16
FILE "04 - Shorty George.flac" WAVE
    INDEX 01 00:00:00
  TRACK 05 AUDIO
    TITLE "Cherokee: Part 1"
    ISRC GBAJD0522030
    REM REPLAYGAIN_TRACK_GAIN -4.60 dB
    REM REPLAYGAIN_TRACK_PEAK 0.943054
    INDEX 00 02:44:57
FILE "05 - Cherokee- Part 1.flac" WAVE
    INDEX 01 00:00:00
  TRACK 06 AUDIO
    TITLE "Cherokee: Part 2"
    ISRC GBAJD0522031
    REM REPLAYGAIN_TRACK_GAIN -2.61 dB
    REM REPLAYGAIN_TRACK_PEAK 0.840393
    INDEX 00 03:11:16
FILE "06 - Cherokee- Part 2.flac" WAVE
    INDEX 01 00:00:00
  TRACK 07 AUDIO
    TITLE "The Apple Jump"
    ISRC GBAJD0522032
    REM REPLAYGAIN_TRACK_GAIN -8.20 dB
    REM REPLAYGAIN_TRACK_PEAK 0.942413
    INDEX 00 03:04:44
FILE "07 - The Apple Jump.flac" WAVE
    INDEX 01 00:00:00
  TRACK 08 AUDIO
    TITLE "I Never Knew"
    ISRC GBAJD0522033
    REM REPLAYGAIN_TRACK_GAIN -7.10 dB
    REM REPLAYGAIN_TRACK_PEAK 0.943329
    INDEX 00 02:34:19
FILE "08 - I Never Knew.flac" WAVE
    INDEX 01 00:00:00
  TRACK 09 AUDIO
    TITLE "Tickle Toe"
    ISRC GBAJD0522034
    REM REPLAYGAIN_TRACK_GAIN -7.60 dB
    REM REPLAYGAIN_TRACK_PEAK 0.894165
    INDEX 00 02:39:40
FILE "09 - Tickle Toe.flac" WAVE
    INDEX 01 00:00:00
  TRACK 10 AUDIO
    TITLE "Louisiana"
    ISRC GBAJD0522035
    REM REPLAYGAIN_TRACK_GAIN -6.34 dB
    REM REPLAYGAIN_TRACK_PEAK 0.931641
    INDEX 00 02:38:31
FILE "10 - Louisiana.flac" WAVE
    INDEX 01 00:00:00
  TRACK 11 AUDIO
    TITLE "Easy Does It"
    ISRC GBAJD0522036
    REM REPLAYGAIN_TRACK_GAIN -3.33 dB
    REM REPLAYGAIN_TRACK_PEAK 0.839996
    INDEX 00 02:25:07
FILE "11 - Easy Does It.flac" WAVE
    INDEX 01 00:00:00
  TRACK 12 AUDIO
    TITLE "Let Me See"
    ISRC GBAJD0522037
    REM REPLAYGAIN_TRACK_GAIN -6.41 dB
    REM REPLAYGAIN_TRACK_PEAK 0.943329
    INDEX 00 03:26:70
FILE "12 - Let Me See.flac" WAVE
    INDEX 01 00:00:00
  TRACK 13 AUDIO
    TITLE "Gone with 'What' Wind?"
    ISRC GBAJD0522038
    REM REPLAYGAIN_TRACK_GAIN -6.53 dB
    REM REPLAYGAIN_TRACK_PEAK 0.938416
    INDEX 00 02:45:44
FILE "13 - Gone with 'What' Wind.flac" WAVE
    INDEX 01 00:00:00
  TRACK 14 AUDIO
    TITLE "Superchief"
    ISRC GBAJD0522039
    REM REPLAYGAIN_TRACK_GAIN -6.05 dB
    REM REPLAYGAIN_TRACK_PEAK 0.943024
    INDEX 00 02:46:04
FILE "14 - Superchief.flac" WAVE
    INDEX 01 00:00:00
  TRACK 15 AUDIO
    TITLE "The World Is Mad: Part 1"
    ISRC GBAJD0522040
    REM REPLAYGAIN_TRACK_GAIN -7.83 dB
    REM REPLAYGAIN_TRACK_PEAK 0.943085
    INDEX 00 03:23:40
FILE "15 - The World Is Mad- Part 1.flac" WAVE
    INDEX 01 00:00:00
  TRACK 16 AUDIO
    TITLE "The World Is Mad: Part 2"
    ISRC GBAJD0522041
    REM REPLAYGAIN_TRACK_GAIN -6.43 dB
    REM REPLAYGAIN_TRACK_PEAK 0.840271
    INDEX 00 02:38:21
FILE "16 - The World Is Mad- Part 2.flac" WAVE
    INDEX 01 00:00:00
  TRACK 17 AUDIO
    TITLE "Five O'Clock Whistle"
    ISRC GBAJD0522042
    REM REPLAYGAIN_TRACK_GAIN -6.00 dB
    REM REPLAYGAIN_TRACK_PEAK 0.893158
    INDEX 00 02:49:18
FILE "17 - Five O'Clock Whistle.flac" WAVE
    INDEX 01 00:00:00
  TRACK 18 AUDIO
    TITLE "Broadway"
    ISRC GBAJD0522043
    REM REPLAYGAIN_TRACK_GAIN -4.68 dB
    REM REPLAYGAIN_TRACK_PEAK 0.904358
    INDEX 00 03:00:21
FILE "18 - Broadway.flac" WAVE
    INDEX 01 00:00:00
  TRACK 19 AUDIO
    TITLE "Rockin' the Blues"
    ISRC GBAJD0522044
    REM REPLAYGAIN_TRACK_GAIN -4.56 dB
    REM REPLAYGAIN_TRACK_PEAK 0.866821
    INDEX 00 02:55:43
FILE "19 - Rockin' the Blues.flac" WAVE
    INDEX 01 00:00:00
  TRACK 20 AUDIO
    TITLE "Beau Brummel"
    ISRC GBAJD0522045
    REM REPLAYGAIN_TRACK_GAIN -5.31 dB
    REM REPLAYGAIN_TRACK_PEAK 0.921570
    INDEX 00 03:07:60
FILE "20 - Beau Brummel.flac" WAVE
    INDEX 01 00:00:00
  TRACK 21 AUDIO
    TITLE "Jump the Blues Away"
    ISRC GBAJD0522046
    REM REPLAYGAIN_TRACK_GAIN -4.92 dB
    REM REPLAYGAIN_TRACK_PEAK 0.902496
    INDEX 00 02:58:15
FILE "21 - Jump the Blues Away.flac" WAVE
    INDEX 01 00:00:00
  TRACK 22 AUDIO
    TITLE "9.20 Special"
    ISRC GBAJD0522047
    REM REPLAYGAIN_TRACK_GAIN -5.19 dB
    REM REPLAYGAIN_TRACK_PEAK 0.943359
    INDEX 00 02:55:39
FILE "22 - 9.20 Special.flac" WAVE
    INDEX 01 00:00:00
  TRACK 23 AUDIO
    TITLE "Fiesta in Blue"
    ISRC GBAJD0522048
    REM REPLAYGAIN_TRACK_GAIN -7.30 dB
    REM REPLAYGAIN_TRACK_PEAK 0.907654
    INDEX 00 03:06:59
FILE "23 - Fiesta in Blue.flac" WAVE
    INDEX 01 00:00:00
  TRACK 24 AUDIO
    TITLE "Somethin' New"
    ISRC GBAJD0522049
    REM REPLAYGAIN_TRACK_GAIN -5.85 dB
    REM REPLAYGAIN_TRACK_PEAK 0.907379
    INDEX 00 03:04:30
FILE "24 - Somethin' New.flac" WAVE
    INDEX 01 00:00:00
  TRACK 25 AUDIO
    TITLE "Feather Merchant"
    ISRC GBAJD0522050
    REM REPLAYGAIN_TRACK_GAIN -6.80 dB
    REM REPLAYGAIN_TRACK_PEAK 0.943024
    INDEX 00 02:48:05
FILE "25 - Feather Merchant.flac" WAVE
    INDEX 01 00:00:00
  TRACK 26 AUDIO
    TITLE "Ain't That the Truth?"
    ISRC GBAJD0522051
    REM REPLAYGAIN_TRACK_GAIN -9.35 dB
    REM REPLAYGAIN_TRACK_PEAK 0.943085
    INDEX 00 02:51:50
FILE "26 - Ain't That the Truth.flac" WAVE
    INDEX 01 00:00:00
 
CD3 {74:19}

01. Evenin' (2:52)
02. Pennies from Heaven (3:04)
03. Exactly Like You (2:44)
04. Boogie Woogie (2:53)
05. Listen, My Children (3:09)
06. Good Mornin' Blues (3:16)
07. Georgianna (2:36)
08. Sent for You Yesterday (2:59)
09. Mama Don't Want No Peas an' Rice an' Coconut Oil (2:54)
10. Stop Beatin' Around the Mulberry Bush (3:03)
11. My Heart Belongs to Daddy (2:58)
12. You Can Depend on Me (3:11)
13. Thursday (3:08)
14. Goin' to Chicago (3:10)
15. If I Could Be with You (One Hour Tonight) (3:03)
16. Bolero at the Savoy (2:53)
17. Sub Deb Blues (3:00)
18. Nobody Knows (2:48)
19. Between the Devil and the Deep Blue Sea (2:36)
20. Someday Sweetheart (2:43)
21. Somebody Stole My Girl (2:55)
22. I Want a Little Girl (2:41)
23. My Wanderin' Man (3:07)
24. Harvard Blues (3:21)
25. Rusty Dusty Blues (3:15)

 
Лог создания рипа
X Lossless Decoder version 20170729 (150.3)
XLD extraction logfile from 2018-05-15 12:18:20 -0400
The Count Basie Orchestra / Bas
Состав:
  • Paul Bascomb    Sax (Tenor)
  • Count Basie    Director, Organ, Piano
  • Artie Bernstein    String Bass
  • Chu Berry    Sax (Tenor)
  • Don Byas    Sax (Tenor)
  • Charlie Christian    Guitar (Electric)
  • Kenny Clarke    Drums
  • Buck Clayton    Arranger, Trumpet
  • Shad Collins    Trumpet
  • Ed Cuffee    Trombone
  • Vic Dickenson    Trombone
  • Ted Donnelly    Trombone
  • Eddie Durham    Guitar, Guitar Arrangements, Trombone
  • Harry "Sweets" Edison    Trumpet
  • Herschel Evans    Clarinet, Sax (Tenor)
  • Nick Fatool    Drums
  • Karl George    Trumpet
  • Andy Gibson    Arranger
  • Benny Goodman    Clarinet
  • Freddie Green    Clarinet, Guitar
  • Lionel Hampton    Vibraphone
  • Coleman Hawkins    Sax (Tenor)
  • Bobby Hicks    Trumpet
  • Helen Humes    Vocals
  • George Hunt    Trombone
  • Jo Jones    Drums
  • Joe Keyes    Trumpet
  • Al Killian    Trumpet
  • Ed Lewis    Trumpet
  • Dan Minor    Trombone
  • Bobby Moore    Trumpet
  • Benny Morton's All Stars    Trombone
  • Jimmy Mundy    Arranger
  • Joe Newman Quartet    Trumpet
  • Walter Page    String Bass
  • Jimmy Powell    Sax (Alto)
  • Rodney Richardson    Bass
  • Caughey Roberts    Sax (Alto)
  • Eli Robinson    Trombone
  • Jimmy Rushing    Vocals
  • Rudy Rutherford    Sax (Baritone)
  • Robert Scott    Trombone
  • Buster Smith    Arranger
  • Carl "The Truth" Smith    Trumpet
  • Tab Smith    Sax (Alto), Sax (Soprano)
  • Buddy Tate    Sax (Tenor)
  • Louis Taylor    Trombone
  • Lucky Thompson    Sax (Tenor)
  • Earle Warren    Sax (Alto), Vocals
  • Jack Washington    Sax (Alto), Sax (Baritone)
  • Dicky Wells    Trombone
  • Claude "Fiddler" Williams    Guitar
  • Shadow Wilson    Drums
  • Sally-Ann Worsfold    Liner Notes
  • Lester Young    Clarinet, Sax (Tenor)
По всем вопросам пишите личное сообщение пользователю M0p94ok.
20:38
605
Нет комментариев. Ваш будет первым!