Поиск

1956 Cannonball Adderley - In The Land Of Hi-Fi (2020) {Mercury} [24-192]

1956 Cannonball Adderley - In The Land Of Hi-Fi (2020) {Mercury} [24-192]
Стили:
Дата записи диска:
June 8 & 18, 1956
Место записи:
Capitol Studios in New York City
Издатель (лейбл):
Носитель:
WEB
Формат:
PCM
Тип рипа:
tracks
Контейнер:
FLAC (*.flac)
Количество каналов:
2.0
Разрядность/ЧД:
24/192
Битрейт аудио:
lossless
Наличие сканов:
только обложка
Релизёр (источник):
Qobuz

This album is available on our DC++ hub:
Этот альбом доступен на нашем DC++ хабе:
dchub://hub.pro-jazz.com:7777

  1.     "Dog My Cats" (Ernie Wilkins) - 2:26
  2.     "I'm Glad There Is You" (Jimmy Dorsey, Paul Mertz) - 2:36
  3.     "Blues for Bohemia" (Julian Cannonball Adderley, Nat Adderley) - 3:56
  4.     "Junior's Tune" (Junior Mance) - 3:24
  5.     "Between the Devil and the Deep Blue Sea" (Harold Arlen, Ted Koehler) - 3:23
  6.     "Casa de Marcel" (Marcel Daniels) - 2:43
  7.     "Little Girl Blue" (Richard Rodgers, Lorenz Hart) - 2:37
  8.     "T's Tune" (Tommy Turrentine) - 3:13
  9.     "Broadway at Basin Street" (Al Frisch, Sid Wayne) - 3:43
  10.     "Just Norman" (Charles "Specs" Wright) - 2:31
  11.     "I Don't Care" (Ray Bryant) - 2:38
Состав:
  •     Cannonball Adderley — alto saxophone
  •     Jerome Richardson — tenor saxophone, flute
  •     Danny Bank — baritone saxophone
  •     Nat Adderley – cornet
  •     Ernie Royal — trumpet
  •     Bobby Byrne, Jimmy Cleveland — trombone
  •     Junior Mance — piano
  •     Keter Betts — bass
  •     Charles "Specs" Wright — drums
  •     Ernie Wilkins — conductor, arranger
Лог проверки качества
foobar2000 2.1.1 / Dynamic Range Meter 1.1.1
log date: 2024-04-28 10:44:54

--------------------------------------------------------------------------------
Analyzed: Cannonball Adderley / In The Land Of Hi-Fi
--------------------------------------------------------------------------------

DR         Peak         RMS     Duration Track
--------------------------------------------------------------------------------
DR7       -0.20 dB    -8.98 dB      2:30 01-Dog My Cats
DR6       -0.20 dB    -8.31 dB      2:35 02-I'm Glad There Is You
DR7       -0.20 dB    -8.66 dB      4:02 03-Blues For Bohemia
DR8       -0.20 dB   -10.34 dB      3:30 04-Junior's Tune
DR8       -0.20 dB   -10.05 dB      3:30 05-Between The Devil And The Deep Blue Sea
DR6       -0.20 dB    -8.19 dB      2:50 06-Casa De Marcel
DR7       -0.20 dB   -10.51 dB      2:42 07-Little Girl Blue
DR7       -0.20 dB    -9.46 dB      3:19 08-T's Tune
DR8       -0.20 dB   -10.39 dB      3:51 09-Broadway At Basin Street
DR7       -0.20 dB    -9.65 dB      2:37 10-Just Norman
DR8       -0.20 dB   -10.49 dB      2:40 11-I Don't Care
--------------------------------------------------------------------------------

Number of tracks:  11
Official DR value: DR7

Samplerate:        192000 Hz
Channels:          2
Bits per sample:   24
Bitrate:           3395 kbps
Codec:             FLAC
================================================================================
Приватный:
Да (DHT отключён)
Размер:
833.30 Мб (873,776,879 байт) » файлов: 13
Участники:
0 раздают, 0 качают (0 участников всего)
Внешние участники:
--- [ Обновить ]
10:53
94
Нет комментариев. Ваш будет первым!