Поиск

1960 Quincy Jones Big Band - at the Alhambra, Paris (part 2) [WEB-DL 1080p]

1960 Quincy Jones Big Band - at the Alhambra, Paris (part 2) [WEB-DL 1080p]
Стиль:
Время звучания:
00:18:20
Главы (разбивка по трекам):
нет
Качество:
WEB-DL
Контейнер:
MP4
Состав:
  • Clark Terry
  • James Cleveland
  • Floyd Standifer
  • Les Spann
  • Joe Harris
  • Budd Johnson
  • Julius Watkins
  • Porter Kilbert
  • Lennie Johnson
  • Melba Liston
  • Ernest Vally
  • Phil Woods
  • Quincy Jones
  • Sahib Shihab
  • Quentin Johnson
  • Patti Bown
  • Ake Persson
  • Jerome Richardson
  • Buddy Catlett
Видео:
AVC (h264) / 1920*1080 / progressive / 16*9 / 1 972 kbps / 25 fps
Аудио#1:
AAC LC / 256 kbps / 44.1 kHz / 2 ch stereo
Описание:

На момент проведения этого концерта в 1960 году Куинси Джонс считался молодым гением международной джазовой сцены. Он развивался в окружении таких музыкантов, как Диззи Гиллеспи, Лайонел Хэмптон и Рэй Чарльз, и теперь был самостоятельным бэнд-лидером.

По сути, одной из причин его переезда в Париж в 1957 году, за три года до этого выступления, было желание освободиться от окончательных ограничений, наложенных на чернокожих композиторов в США (например, писать для струнных), и завершить свою эволюцию в многогранного музыкального маэстро, каким мы знаем его сегодня.

В этот период он изучал классическую музыку Нади Буланже, а позже получил возможность собрать собственный биг-бэнд для бродвейского шоу Free and Easy. Это была прекрасная возможность, но во время гастролей случилась беда — постановка обанкротилась. Оказавшись в затруднительном положении, с семнадцатью музыкантами, которым нужно было платить, и огромными долгами, они решили играть дальше, несмотря ни на что. "У нас был лучший джаз-бэнд на планете, и мы буквально голодали", — вспоминал позже Куинси.

Это шоу уникально, поскольку демонстрирует жизнеспособность и перспективность молодого человека без гроша в кармане, который в последующие несколько лет станет важнейшей фигурой в истории музыки XX века. В первой части группа, в состав которой входят Кларк Терри и Бадд Джонсон, исполняет такие классические композиции, как "Cherokee" и "Air Mail Special", с уверенностью, прыжком и неудержимым, переполняющим характером.

Во второй части группа, в состав которой входят Кларк Терри и Бадд Джонсон, стильно завершает шоу, исполняя такие любимые композиции, как "I Remember Clifford" — трибьют Бенни Голсона великому Клиффорду Брауну.

Роуэн Стэндиш Хэйс

Личные заметки от Куинси Джонса:

    Позвольте мне вернуть вас всех на 60 лет назад, когда я был молодым джазовым котом, которого только что попросили собрать биг-бэнд для бродвейского шоу Стэнли Чейза "Free and Easy". Мы были в разъездах по Европе, и шоу закрылось, то есть мы оказались перед выбором: остаться или уехать домой? Я поговорил со своей группой, и они остались со мной на 10 месяцев, пока мы путешествовали по континенту как бродяги, без плана, денег, агента, менеджера, маршрута, ничего! Мы путешествовали на автобусах, машинах (даже пешком по Югославии) и играли везде, где только могли. Это был тяжелый период, но я бы не променял его ни на что, даже несмотря на то, что у меня накопились долги, которые пришлось выплачивать 7 лет! Я чуть не лишился жизни и рассудка, пытаясь платить, содержать и кормить 70 музыкантов, но это научило меня силе джаза как объединяющей силы.

Отчёт DVDInfo/MediaInfo/BDInfo
Общее
Полное имя : \\Q\Quincy Jones\1960 Quincy Jones Big Band - Live at the Alhambra, Paris (part 2) [WEB-DL 1080p]\1960 Quincy Jones Big Band - Live at the Alhambra, Paris (part 2) [WEB-DL 1080p].mp4
Формат : MPEG-4
Профиль формата : Base Media
Идентификатор кодека : isom (isom/iso2/avc1/mp41)
Размер файла : 293 Мбайт
Продолжительность : 18 м. 20 с.
Общий поток : 2 235 Кбит/сек
Частота кадров : 25,000 кадров/сек
HDVideo : Yes

Видео
Идентификатор : 1
Формат : AVC
Формат/Информация : Advanced Video Codec
Профиль формата : High@L4.1
Настройки формата : CABAC / 3 Ref Frames
Параметр CABAC формата : Да
Параметр RefFrames формата : 3 кадра
Параметр GOP формата : M=4, N=50
Идентификатор кодека : avc1
Идентификатор кодека/Информация : Advanced Video Coding
Продолжительность : 18 м. 20 с.
Битрейт : 2 000 Кбит/сек
Максимальный битрейт : 1 972 Кбит/сек
Ширина : 1 920 пикселей
Высота : 1 080 пикселей
Соотношение сторон : 16:9
Active width : 1 436 пикселей
Active height : 1 048 пикселей
Active display aspect ratio : 1,370
Режим частоты кадров : Постоянный
Частота кадров : 25,000 кадров/сек
Цветовое пространство : YUV
Субдискретизация насыщенности : 4:2:0
Битовая глубина : 8 бит
Тип развёртки : Прогрессивная
Бит/(Пиксели*Кадры) : 0.039
Размер потока : 259 Мбайт (88%)
Библиотека кодирования : x264 core 152 r2854 e9a5903
Настройки программы : cabac=1 / ref=4 / deblock=1:0:0 / analyse=0x3:0x113 / me=hex / subme=7 / psy=1 / psy_rd=1.00:0.00 / mixed_ref=1 / me_range=16 / chroma_me=1 / trellis=1 / 8x8dct=1 / cqm=0 / deadzone=21,11 / fast_pskip=1 / chroma_qp_offset=-2 / threads=6 / lookahead_threads=1 / sliced_threads=0 / nr=0 / decimate=1 / interlaced=0 / bluray_compat=0 / constrained_intra=0 / bframes=3 / b_pyramid=1 / b_adapt=1 / b_bias=0 / direct=1 / weightb=1 / open_gop=0 / weightp=2 / keyint=50 / keyint_min=25 / scenecut=0 / intra_refresh=0 / rc_lookahead=40 / rc=cbr / mbtree=1 / bitrate=2000 / ratetol=1.0 / qcomp=0.60 / qpmin=0 / qpmax=69 / qpstep=4 / vbv_maxrate=2000 / vbv_bufsize=6000 / nal_hrd=none / filler=0 / ip_ratio=1.40 / aq=1:1.00
Codec configuration box : avcC

Аудио
Идентификатор : 2
Формат : AAC LC
Формат/Информация : Advanced Audio Codec Low Complexity
Идентификатор кодека : mp4a-40-2
Продолжительность : 18 м. 20 с.
Вид битрейта : Постоянный
Битрейт : 256 Кбит/сек
Каналы : 2 канала
Channel layout : L R
Частота : 48,0 КГц
Частота кадров : 46,875 кадров/сек (1024 SPF)
Метод сжатия : С потерями
Размер потока : 33,6 Мбайт (11%)
Default : Да
Alternate group : 1
Any questions - projazzclub@gmail.com
47
Нет комментариев. Ваш будет первым!