Поиск

1960 Jazz at the Philharmonic - at the Pleyel Concert Hall, Paris (part 1) [WEB-DL 1080p]

1960 Jazz at the Philharmonic - at the Pleyel Concert Hall, Paris (part 1) [WEB-DL 1080p]
Дата проведения концерта (записи):
1960
Место проведения:
Salle Pleyel, Paris
Главы (разбивка по трекам):
нет
Качество:
WEB-DL
Контейнер:
MP4
Состав:
Видео:
AVC (h.264) / 1920x1080 / progressive / 16x9 / 1 995 kbps / 25 fps
Аудио#1:
AAC-LC / 256 kbps / 48,0 kHz / 2.0 stereo
Описание:

Концерт 1960 года "Live at Pleyel, Paris — Part 1" длится около тридцати минут, в нем участвуют четыре гиганта, которые также являются экспертами в области свинга. Это композитор и аранжировщик Джей Джей Джонсон (тромбон) из Индианаполиса; Стэн Гетц (тенор-саксофон), король музыки босса-нова; Джулиан Эдвин "Кэннонболл" Аддерли (альт-саксофон), известный своим исполнением композиции Джо Завинула "Mercy, Mercy, Mercy" 1966 года; и брат Кэннонболла, Нэт Аддерли (труба), автор знаменитой композиции "Work Song". В ритм-секцию входят пианист, бас-гитарист и барабанщик.

Концерт, представляющий собой демонстрацию прекрасных тем, баллад и свинговых пьес, сочетает в себе игривость с яростным мастерством владения жанром. Разнообразие мелодий и исполнителей делает шоу приятным как для знатоков, так и для любителей джаза.

Эмили Понс

Отчёт DVDInfo/MediaInfo/BDInfo
Общее
Полное имя : \\J\Jazz At The Philharmonic\1960 Jazz at the Philharmonic - at the Pleyel Concert Hall, Paris (part 1) [WEB-DL 1080p]\1960 Jazz at the Philharmonic - at the Pleyel Concert Hall, Paris (part 1) [WEB-DL].mp4
Формат : MPEG-4
Профиль формата : Base Media
Идентификатор кодека : isom (isom/iso2/avc1/mp41)
Размер файла : 545 Мбайт
Продолжительность : 33 м. 44 с.
Общий поток : 2 258 Кбит/сек
Частота кадров : 25,000 кадров/сек
HDVideo : Yes

Видео
Идентификатор : 1
Формат : AVC
Формат/Информация : Advanced Video Codec
Профиль формата : High@L4.1
Настройки формата : CABAC / 3 Ref Frames
Параметр CABAC формата : Да
Параметр RefFrames формата : 3 кадра
Идентификатор кодека : avc1
Идентификатор кодека/Информация : Advanced Video Coding
Продолжительность : 33 м. 44 с.
Битрейт : 1 995 Кбит/сек
Ширина : 1 920 пикселей
Высота : 1 080 пикселей
Соотношение сторон : 16:9
Active width : 1 161 пикселей
Active height : 485 пикселей
Active display aspect ratio : 2,39:1
Режим частоты кадров : Постоянный
Частота кадров : 25,000 кадров/сек
Цветовое пространство : YUV
Субдискретизация насыщенности : 4:2:0
Битовая глубина : 8 бит
Тип развёртки : Прогрессивная
Бит/(Пиксели*Кадры) : 0.038
Размер потока : 482 Мбайт (88%)
Библиотека кодирования : x264 core 152 r2854 e9a5903
Настройки программы : cabac=1 / ref=4 / deblock=1:0:0 / analyse=0x3:0x113 / me=hex / subme=7 / psy=1 / psy_rd=1.00:0.00 / mixed_ref=1 / me_range=16 / chroma_me=1 / trellis=1 / 8x8dct=1 / cqm=0 / deadzone=21,11 / fast_pskip=1 / chroma_qp_offset=-2 / threads=6 / lookahead_threads=1 / sliced_threads=0 / nr=0 / decimate=1 / interlaced=0 / bluray_compat=0 / constrained_intra=0 / bframes=3 / b_pyramid=1 / b_adapt=1 / b_bias=0 / direct=1 / weightb=1 / open_gop=0 / weightp=2 / keyint=50 / keyint_min=25 / scenecut=0 / intra_refresh=0 / rc_lookahead=40 / rc=cbr / mbtree=1 / bitrate=2000 / ratetol=1.0 / qcomp=0.60 / qpmin=0 / qpmax=69 / qpstep=4 / vbv_maxrate=2000 / vbv_bufsize=6000 / nal_hrd=none / filler=0 / ip_ratio=1.40 / aq=1:1.00
Codec configuration box : avcC

Аудио
Идентификатор : 2
Формат : AAC LC
Формат/Информация : Advanced Audio Codec Low Complexity
Идентификатор кодека : mp4a-40-2
Продолжительность : 33 м. 44 с.
Вид битрейта : Постоянный
Битрейт : 256 Кбит/сек
Каналы : 2 канала
Channel layout : L R
Частота : 48,0 КГц
Частота кадров : 46,875 кадров/сек (1024 SPF)
Метод сжатия : С потерями
Размер потока : 61,8 Мбайт (11%)
Default : Да
Alternate group : 1
Any questions - projazzclub@gmail.com
85
Нет комментариев. Ваш будет первым!