Поиск

1959 Miles Davis - The Cool Jazz Sound [WEB-DL 1080p]

1959 Miles Davis - The Cool Jazz Sound [WEB-DL 1080p]
Стиль:
Треклист:

1.- So What
2.- The Duke
3.- Blues for Pablo
4.- New Rhumba

Состав:
  • Miles Davis - trumpet, flugelhorn
  • John Coltrane - tenor sax, alto sax
  • Wynton Kelly - piano
  • Paul Chambers - bas
  • Jimmy Cobb - drums
  • Gil Evans Orchestra
  • Julian Adderly - alto sax
  • Erwie Royal - trumpet
  • Louis Mucci - trumpet
  • John Coles - trumpet
  • Emmett Berry - trumpet
  • Clyde Reasinger - trumpet
  • Julius Watkins - trombone
  • Robert Northern - french horn
  • Frank Rehak - trombone
  • Jimmy Cleveland - trombone
  • Bill Elton - trombone
  • Rod Levitt - trombone
  • Bill Barber - tuba
  • Romeo Penque - sax
  • Danny Bank - sax
  • Ed Caine - sax
Видео:
AVC (h.264) / 1920x1080 / progressive / 16x9 / 1 983 kbps / 25 fps
Аудио#1:
AAC-LC / 256 kbps / 48,0 kHz / 2.0 stereo
Описание:

Сначала звучит труба Майлза Дэвиса, затем на экране появляется его лицо, вступает оркестр, и начинается волшебство. Мы можем только посоветовать нашим читателям посмотреть эту культовую 26-минутную запись, которая была сделана 2 апреля 1959 года в рамках программы, разработанной телевизионным продюсером Робертом Херриджем. Программа, первоначально озаглавленная The Sound Of Miles Davis и вышедшая в эфир 21 июля 1960 года, является чистым шедевром и остается знаком одного из самых прекрасных приключений в джазе, того, которое закрепило сотрудничество между Майлзом Дэвисом и Гилом Эвансом.

"So What", открывающая программу, была записана месяцем ранее для альбома Kind Of Blue с Биллом Эвансом на фортепиано; по случаю этой телепрограммы пианистом стал Уинтон Келли, а оркестром — Гил Эванс. Майлз Дэвис исполняет два соло, причем второе заменяет соло прикованного к постели Кэннонболла Эддерли. Взрывное красивое соло Джона Колтрейна, кажется, завораживает Майлза, который внимательно слушает его за кулисами. В трех последующих композициях квинтет отходит в сторону, чтобы дать возможность развиться диалогу между Майлзом и оркестром; Колтрейн, басист Пол Чемберс и барабанщик Джимми Кобб сливаются с оркестром. Песни "The Duke", "Blues For Pablo" и "New Rhumba" были записаны в 1957 году и вошли в трек-лист альбома Miles Ahead. В этом "живом" исполнении они сохранили свою эмоциональную силу. А желание вновь погрузиться в чтение программы просто неодолимо.

Филипп Лесаж

 

Дополнительная информация:

This album is available on our DC++ hub:
Этот альбом доступен на нашем DC++ хабе:
dchub://hub.pro-jazz.com:7777

Отчёт DVDInfo/MediaInfo/BDInfo
Общее
Полное имя : \\Miles Davis\1959 Miles Davis - The Cool Jazz Sound [WEB-DL 1080p]\1959 Miles Davis - The Cool Jazz Sound [WEB-DL 1080p].mp4
Формат : MPEG-4
Профиль формата : Base Media
Идентификатор кодека : isom (isom/iso2/avc1/mp41)
Размер файла : 412 Мбайт
Продолжительность : 25 м. 39 с.
Общий поток : 2 245 Кбит/сек
Частота кадров : 25,000 кадров/сек
HDVideo : Yes

Видео
Идентификатор : 1
Формат : AVC
Формат/Информация : Advanced Video Codec
Профиль формата : High@L4.1
Настройки формата : CABAC / 3 Ref Frames
Параметр CABAC формата : Да
Параметр RefFrames формата : 3 кадра
Идентификатор кодека : avc1
Идентификатор кодека/Информация : Advanced Video Coding
Продолжительность : 25 м. 39 с.
Битрейт : 1 983 Кбит/сек
Ширина : 1 920 пикселей
Высота : 1 080 пикселей
Соотношение сторон : 16:9
Active width : 1 440 пикселей
Active height : 1 049 пикселей
Active display aspect ratio : 1,370
Режим частоты кадров : Постоянный
Частота кадров : 25,000 кадров/сек
Цветовое пространство : YUV
Субдискретизация насыщенности : 4:2:0
Битовая глубина : 8 бит
Тип развёртки : Прогрессивная
Бит/(Пиксели*Кадры) : 0.038
Размер потока : 364 Мбайт (88%)
Библиотека кодирования : x264 core 155 r2917 0a84d98
Настройки программы : cabac=1 / ref=4 / deblock=1:0:0 / analyse=0x3:0x113 / me=hex / subme=7 / psy=1 / psy_rd=1.00:0.00 / mixed_ref=1 / me_range=16 / chroma_me=1 / trellis=1 / 8x8dct=1 / cqm=0 / deadzone=21,11 / fast_pskip=1 / chroma_qp_offset=-2 / threads=6 / lookahead_threads=1 / sliced_threads=0 / nr=0 / decimate=1 / interlaced=0 / bluray_compat=0 / constrained_intra=0 / bframes=3 / b_pyramid=1 / b_adapt=1 / b_bias=0 / direct=1 / weightb=1 / open_gop=0 / weightp=2 / keyint=50 / keyint_min=25 / scenecut=0 / intra_refresh=0 / rc_lookahead=40 / rc=cbr / mbtree=1 / bitrate=2000 / ratetol=1.0 / qcomp=0.60 / qpmin=0 / qpmax=69 / qpstep=4 / vbv_maxrate=2000 / vbv_bufsize=6000 / nal_hrd=none / filler=0 / ip_ratio=1.40 / aq=1:1.00
Codec configuration box : avcC

Аудио
Идентификатор : 2
Формат : AAC LC
Формат/Информация : Advanced Audio Codec Low Complexity
Идентификатор кодека : mp4a-40-2
Продолжительность : 25 м. 39 с.
Вид битрейта : Постоянный
Битрейт : 256 Кбит/сек
Каналы : 2 канала
Channel layout : L R
Частота : 48,0 КГц
Частота кадров : 46,875 кадров/сек (1024 SPF)
Метод сжатия : С потерями
Размер потока : 47,0 Мбайт (11%)
Default : Да
Alternate group : 1
Any questions - projazzclub@gmail.com
172
Нет комментариев. Ваш будет первым!