Поиск

1958 Duke Ellington and His Orchestra - at Salle Pleyel, Paris [WEB-DL 1080p]

1958 Duke Ellington and His Orchestra - at Salle Pleyel, Paris [WEB-DL 1080p]
Стиль:
Место проведения:
Salle Pleyel, Paris
Время звучания:
00:31:40
Главы (разбивка по трекам):
нет
Качество:
HDTV
Контейнер:
MP4
Состав:
Видео:
AVC (h.264) / 1920x1080 / progressive / 16x9 / 1 995 kbps / 25 fps
Аудио#1:
AAC-LC / 256 kbps / 48,0 kHz / 2.0 stereo
Описание:

Герцог всегда любил Париж, и город любил его в ответ. Франция стала одним из первых мест, где он добился большой известности, и он с удовольствием проводил там время на протяжении всей своей карьеры, особенно учитывая относительно позитивное отношение к афроамериканским джазовым музыкантам.

В 1958 году Эллингтон отправился в историческое европейское турне, давая яркие и харизматичные выступления, которые еще больше способствовали росту его популярности. В этот концерт вошли такие любимые композиции, как "Caravan" с Кларком Терри на трубе и "Take the A Train" с прекрасным юмористическим вокалом в исполнении Рэя Нэнса.

Эллингтон демонстрирует свое исключительное мастерство, умело командуя группой и подбадривая ее аплодисментами, а также делая перерывы, когда это необходимо ("ладно, ладно, ладно, слушайте"), подобно опытному мастеру, управляющему и укрощающему энергичную породистую лошадь.

Кларк Терри действительно выделяется, особенно в "Juniflip", новой композиции, написанной им самим, которую он исполняет на своем несравненном флюгельгорне. Эта песня была исполнена лишь несколько раз под руководством Эллингтона, и она ушла из репертуара группы, когда Терри покинул ее в следующем году.

Звукозапись превосходная, почти без изъянов, а кадры четкие — капсула, переносящая нас в свинг и развязность ушедшей эпохи, как, должно быть, чувствовали себя в то время слушатели (эра свинга к тому времени уже была недавней историей).

Роуэн Стэндиш Хейс

Личное замечание от Куинси Джонса:

Дюк Эллингтон был одним из моих музыкальных богов. Никогда не забываешь тех, кто освещает путь, и Дюк был абсолютным пионером — образцом для подражания чернокожих в то время, когда общество изо всех сил старалось стереть их с лица земли. Моя первая телевизионная постановка была посвящена ему, и с тех пор он вдохновляет меня. Один из самых запоминающихся советов, который он мне дал, гласил: "Есть только 2 вида музыки — хорошая и другая".

Для меня большая честь сохранить память о нем с помощью Qwest TV, поэтому, пожалуйста, посмотрите на Дюка в действии в 1958 году с его оркестром.

Дополнительная информация:

This album is available on our DC++ hub:
Этот альбом доступен на нашем DC++ хабе:
dchub://hub.pro-jazz.com:7777

Отчёт DVDInfo/MediaInfo/BDInfo
Полное имя : \\D\Duke Ellington\1958 Duke Ellington and His Orchestra - at Salle Pleyel, Paris [WEB-DL 1080p]\1958 Duke Ellington and His Orchestra - at Salle Pleyel, Paris [WEB-DL 1080p].mp4
Формат : MPEG-4
Профиль формата : Base Media
Идентификатор кодека : isom (isom/iso2/avc1/mp41)
Размер файла : 511 Мбайт
Продолжительность : 31 м. 40 с.
Общий поток : 2 257 Кбит/сек
Частота кадров : 25,000 кадров/сек
HDVideo : Yes

Видео
Идентификатор : 1
Формат : AVC
Формат/Информация : Advanced Video Codec
Профиль формата : High@L4.1
Настройки формата : CABAC / 3 Ref Frames
Параметр CABAC формата : Да
Параметр RefFrames формата : 3 кадра
Параметр GOP формата : M=4, N=50
Идентификатор кодека : avc1
Идентификатор кодека/Информация : Advanced Video Coding
Продолжительность : 31 м. 40 с.
Битрейт : 1 995 Кбит/сек
Ширина : 1 920 пикселей
Высота : 1 080 пикселей
Соотношение сторон : 16:9
Active width : 1 440 пикселей
Active height : 1 064 пикселя
Active display aspect ratio : 4:3
Режим частоты кадров : Постоянный
Частота кадров : 25,000 кадров/сек
Цветовое пространство : YUV
Субдискретизация насыщенности : 4:2:0
Битовая глубина : 8 бит
Тип развёртки : Прогрессивная
Бит/(Пиксели*Кадры) : 0.038
Размер потока : 452 Мбайт (88%)
Библиотека кодирования : x264 core 152 r2854 e9a5903
Настройки программы : cabac=1 / ref=4 / deblock=1:0:0 / analyse=0x3:0x113 / me=hex / subme=7 / psy=1 / psy_rd=1.00:0.00 / mixed_ref=1 / me_range=16 / chroma_me=1 / trellis=1 / 8x8dct=1 / cqm=0 / deadzone=21,11 / fast_pskip=1 / chroma_qp_offset=-2 / threads=6 / lookahead_threads=1 / sliced_threads=0 / nr=0 / decimate=1 / interlaced=0 / bluray_compat=0 / constrained_intra=0 / bframes=3 / b_pyramid=1 / b_adapt=1 / b_bias=0 / direct=1 / weightb=1 / open_gop=0 / weightp=2 / keyint=50 / keyint_min=25 / scenecut=0 / intra_refresh=0 / rc_lookahead=40 / rc=cbr / mbtree=1 / bitrate=2000 / ratetol=1.0 / qcomp=0.60 / qpmin=0 / qpmax=69 / qpstep=4 / vbv_maxrate=2000 / vbv_bufsize=6000 / nal_hrd=none / filler=0 / ip_ratio=1.40 / aq=1:1.00
Codec configuration box : avcC

Аудио
Идентификатор : 2
Формат : AAC LC
Формат/Информация : Advanced Audio Codec Low Complexity
Идентификатор кодека : mp4a-40-2
Продолжительность : 31 м. 40 с.
Вид битрейта : Постоянный
Битрейт : 256 Кбит/сек
Каналы : 2 канала
Channel layout : L R
Частота : 48,0 КГц
Частота кадров : 46,875 кадров/сек (1024 SPF)
Метод сжатия : С потерями
Размер потока : 58,0 Мбайт (11%)
Default : Да
Alternate group : 1
Any questions - projazzclub@gmail.com
142
Нет комментариев. Ваш будет первым!