Вы используете незарегистрированную версию компонента "Вкладки"!

Поиск

2018 Bobby McFerrin & Gimme5 - Circlesongs at Salle Pleyel [Web-DL 720p]

2018 Bobby McFerrin & Gimme5 - Circlesongs at Salle Pleyel [Web-DL 720p]
Дата проведения концерта (записи):
16 ноября 2018
Место проведения:
Salle Pleyel
Время звучания:
00:56:57
Главы (разбивка по трекам):
нет
Состав:

Bobby MCFERRIN (chant)
Joey BLAKE (chant)
Dave WORM (chant)
RHIANNON (chant)
Judy VINAR (chant)

Видео:
AVC,1280*720p (16:9), 2435kbps, 25fps
Аудио#1:
AAC, 125-151kbps, 48kHz, 2ch
Отчёт DVDInfo/MediaInfo/BDInfo
Общее
Полное имя : \\NASF8F4EB\Videos\HD Video\B\Bobby McFerrin\2018 Bobby McFerrin & Gimme5 - Circlesongs at Salle Pleyel [HDTV 720p]\2018 Bobby McFerrin - Circlesongs [HDTV 720p].mp4
Формат : MPEG-4
Профиль формата : Base Media / Version 2
Идентификатор кодека : mp42 (isom/mp42)
Размер файла : 1,02 Гбайт
Продолжительность : 56 м. 57 с.
Режим общего битрейта : Переменный
Общий поток : 2565 Кбит/сек
Дата кодирования : UTC 2019-09-26 22:07:45
Дата пометки : UTC 2019-09-26 22:07:45

Видео
Идентификатор : 1
Формат : AVC
Формат/Информация : Advanced Video Codec
Профиль формата : Main@L3.1
Настройки формата : CABAC / 3 Ref Frames
Параметр CABAC формата : Да
Параметр RefFrames формата : 3 кадра
Параметр GOP формата : M=4, N=33
Идентификатор кодека : avc1
Идентификатор кодека/Информация : Advanced Video Coding
Продолжительность : 56 м. 57 с.
Битрейт : 2435 Кбит/сек
Ширина : 1280 пикселей
Высота : 720 пикселей
Соотношение сторон : 16:9
Режим частоты кадров : Постоянный
Частота кадров : 25,000 кадров/сек
Стандарт вещания : PAL
Цветовое пространство : YUV
Субдискретизация насыщенности : 4:2:0
Битовая глубина : 8 бит
Тип развёртки : Прогрессивная
Бит/(Пиксели*Кадры) : 0.106
Размер потока : 992 Мбайт (95%)
Дата кодирования : UTC 2019-09-26 22:07:46
Дата пометки : UTC 2019-09-26 22:07:46
Цветовой диапазон : Limited
Codec configuration box : avcC

Аудио
Идентификатор : 2
Формат : AAC LC
Формат/Информация : Advanced Audio Codec Low Complexity
Идентификатор кодека : mp4a-40-2
Продолжительность : 56 м. 57 с.
Вид битрейта : Переменный
Битрейт : 125 Кбит/сек
Максимальный битрейт : 151 Кбит/сек
Каналы : 2 канала
ChannelLayout : L R
Частота : 48,0 КГц
Частота кадров : 46,875 кадров/сек (1024 SPF)
Метод сжатия : С потерями
Размер потока : 51,1 Мбайт (5%)
Дата кодирования : UTC 2019-09-26 22:07:46
Дата пометки : UTC 2019-09-26 22:07:46
Any questions - support@pro-jazz.com. Есть вопросы - support@pro-jazz.com
313
Нет комментариев. Ваш будет первым!