Поиск

2013 Monty Alexander - Saint-Emilion Jazz Festival [HDTV 1080p]

2013 Monty Alexander - Saint-Emilion Jazz Festival [HDTV 1080p]
Время звучания:
01:10:26
Треклист:

1. Nothing ever change my love (Fisher - Segal)
2. Look Up (MA)
3. Sweet Jamaica Suit (MA)
4. Running Away (Bob Marley)
5. Love Notes (MA)
6. Regulater (MA)
7. Hope (MA)
8. Glory Hallelujah (MA)
9. King Tubby (Augustus Pablo)

Описание:

Monty Alexander — Saint-Emilion Jazz Festival, 20th july 2013

Качество: HDTVRip 1080p
Контейнер: MKV
Видео кодек: H.264
Аудио кодек: AC3
Видео: 1920x1080 (16:9), 25.00 fps, AVC, MKV, 8179 Кбит, 0.158 bits/pixel
Аудио: 48.0 KHz, AC3, 2 ch, 192 Kbps

Отчёт DVDInfo/MediaInfo/BDInfo
Полное имя : G:\DVD\Monty Alexander ( 2013)\Monty Alexander - Saint-Emilion Jazz festival.mkv
Формат : Matroska
Размер файла : 4,20 Гбайт
Продолжительность : 1 ч. 10 м.
Общий поток : 8541 Кбит/сек
Программа кодирования : Lavf51.12.1
Библиотека кодирования : Lavf51.12.1

Видео
Идентификатор : 1
Формат : AVC
Формат/Информация : Advanced Video Codec
Профиль формата : Baseline@L4.0
Параметр CABAC формата : Нет
Параметр ReFrames формата : 1 кадр
Параметр GOP формата : M=1, N=12
Идентификатор кодека : V_MPEG4/ISO/AVC
Продолжительность : 1 ч. 10 м.
Вид битрейта : Переменный
Битрейт : 8179 Кбит/сек
Максимальный битрейт : 12,0 Мбит/сек
Ширина : 1920 пикселей
Высота : 1080 пикселей
Соотношение сторон : 16:9
Частота кадров : 25,000 кадров/сек
Частота кадров в оригинале : 24,000 кадра/сек
Цветовое пространство : YUV
Субдискретизация насыщенности : 4:2:0
Битовая глубина : 8 бит
Тип развёртки : Прогрессивная
Бит/(Пиксели*Кадры) : 0.158
Размер потока : 4,02 Гбайт (96%)
Язык : English / English

Аудио
Идентификатор : 2
Формат : AC-3
Формат/Информация : Audio Coding 3
Расширение режима : CM (complete main)
Идентификатор кодека : A_AC3
Продолжительность : 1 ч. 10 м.
Вид битрейта : Постоянный
Битрейт : 192 Кбит/сек
Каналы : 2 канала
Расположение каналов : Front: L R
Частота : 48,0 КГц
Битовая глубина : 16 бит
Метод сжатия : С потерями
Размер потока : 96,7 Мбайт (2%)
Язык : English / English
Скриншоты видео
2013 Monty Alexander - Saint-Emilion Jazz Festival [HDTV 1080p] 02013 Monty Alexander - Saint-Emilion Jazz Festival [HDTV 1080p] 12013 Monty Alexander - Saint-Emilion Jazz Festival [HDTV 1080p] 22013 Monty Alexander - Saint-Emilion Jazz Festival [HDTV 1080p] 32013 Monty Alexander - Saint-Emilion Jazz Festival [HDTV 1080p] 42013 Monty Alexander - Saint-Emilion Jazz Festival [HDTV 1080p] 52013 Monty Alexander - Saint-Emilion Jazz Festival [HDTV 1080p] 62013 Monty Alexander - Saint-Emilion Jazz Festival [HDTV 1080p] 72013 Monty Alexander - Saint-Emilion Jazz Festival [HDTV 1080p] 82013 Monty Alexander - Saint-Emilion Jazz Festival [HDTV 1080p] 92013 Monty Alexander - Saint-Emilion Jazz Festival [HDTV 1080p] 10
Download available for power users only.
613
Нет комментариев. Ваш будет первым!