Поиск

2013 Bobby McFerrin - At Alfa Jazz Festival [HDTV 1080i]

2013 Bobby McFerrin - At Alfa Jazz Festival [HDTV 1080i]
Время звучания:
00:56:22
Состав:
  • Bobby McFerrin - vocals
  • Gil Goldstein - music director, arranger, keyboards
  • David Mansfield - acoustic and electric guitar, national resonator guitar, violin, mandolin
  • Armand Hirsch - guitars
  • Scott Colley - acoustic bass
  • Louis Cato - drums, bass ukulele and vocals
Треклист:

1. Glory
2. Everytime
3. Joshua
4. Fix Me, Jesus
5. Whole World
6. I Shall Be Released
7. Stranded
8. Can't Find My Way Home
9. Circle Song
10. Gracious
11. Honeysuckle Rose
12. Rest / No Indeed

Описание:

Recorded June 15th, 2013 in Lviv / Ukraine … выступление на фестивале джазовой музыки Alfa Jazz Festival (Львов) 15 июня 2013 года
Огромная Благодарность уважаемому greggr – за предоставленный материал ... Спасибо большое !!!
Качество: HDTV 1080i
Контейнер: TS
Видео кодек: H.264
Аудио кодек: AC3
Видео: 7 644 Kbps, 1920*1080 (16:9), at 25.000 fps, AVC (Main@L4.0) (CABAC / 4 Ref Frames)
Аудио: French, 256 Kbps, 48.0 KHz, 16 bits, 2 channels, AC-3

Отчёт DVDInfo/MediaInfo/BDInfo
General
ID : 1102 (0x44E)
Complete name : K:\Bobby McFerrin - Alfa Jazz Festival 2013 HDTV 1080i\Bobby McFerrin - Alfa Jazz Festival 2013.ts
Format : MPEG-TS
File size : 3.27 GiB
Duration : 56mn 20s
Overall bit rate : 8 313 Kbps

Video
ID : 161 (0xA1)
Menu ID : 6502 (0x1966)
Format : AVC
Format/Info : Advanced Video Codec
Format profile : High@L4.0
Format settings, CABAC : Yes
Format settings, ReFrames : 4 frames
Codec ID : 27
Duration : 56mn 20s
Bit rate : 7 644 Kbps
Width : 1 920 pixels
Height : 1 080 pixels
Display aspect ratio : 16:9
Frame rate : 25.000 fps
Color space : YUV
Chroma subsampling : 4:2:0
Bit depth : 8 bits
Scan type : MBAFF
Bits/(Pixel*Frame) : 0.147
Stream size : 3.01 GiB (92%)
Color primaries : BT.709-5, BT.1361, IEC 61966-2-4, SMPTE RP177
Transfer characteristics : BT.709-5, BT.1361
Matrix coefficients : BT.709-5, BT.1361, IEC 61966-2-4 709, SMPTE RP177

Audio
ID : 86 (0x56)
Menu ID : 6502 (0x1966)
Format : AC-3
Format/Info : Audio Coding 3
Mode extension : CM (complete main)
Codec ID : 6
Duration : 56mn 20s
Bit rate mode : Constant
Bit rate : 256 Kbps
Channel(s) : 2 channels
Channel positions : Front: L R
Sampling rate : 48.0 KHz
Bit depth : 16 bits
Compression mode : Lossy
Delay relative to video : -428ms
Stream size : 103 MiB (3%)
Language : French

Menu
ID : 1281 (0x501)
Menu ID : 6502 (0x1966)
Duration : 56mn 20s
List : 86 (0x56) (AC-3, French) / 161 (0xA1) (AVC)
Language : French
Скриншоты видео
2013 Bobby McFerrin - At Alfa Jazz Festival [HDTV 1080i] 02013 Bobby McFerrin - At Alfa Jazz Festival [HDTV 1080i] 12013 Bobby McFerrin - At Alfa Jazz Festival [HDTV 1080i] 22013 Bobby McFerrin - At Alfa Jazz Festival [HDTV 1080i] 32013 Bobby McFerrin - At Alfa Jazz Festival [HDTV 1080i] 42013 Bobby McFerrin - At Alfa Jazz Festival [HDTV 1080i] 52013 Bobby McFerrin - At Alfa Jazz Festival [HDTV 1080i] 62013 Bobby McFerrin - At Alfa Jazz Festival [HDTV 1080i] 72013 Bobby McFerrin - At Alfa Jazz Festival [HDTV 1080i] 82013 Bobby McFerrin - At Alfa Jazz Festival [HDTV 1080i] 92013 Bobby McFerrin - At Alfa Jazz Festival [HDTV 1080i] 102013 Bobby McFerrin - At Alfa Jazz Festival [HDTV 1080i] 112013 Bobby McFerrin - At Alfa Jazz Festival [HDTV 1080i] 122013 Bobby McFerrin - At Alfa Jazz Festival [HDTV 1080i] 132013 Bobby McFerrin - At Alfa Jazz Festival [HDTV 1080i] 14
Download available for power users only.
520
Нет комментариев. Ваш будет первым!