Вы используете незарегистрированную версию компонента "Вкладки"!

Поиск

2009 Richard Galliano Quartet - Estival Jazz Lugano [HDTV 720p]

2009 Richard Galliano Quartet - Estival Jazz Lugano [HDTV 720p]
Время звучания:
00:53:43
Состав:
  • Richard Galliano: accordion
  • Richard Bona: bass
  • Gonzalo Rubalcaba: piano
  • Clarence Penn: drums
Описание:

Качество: HDTV 720p
Контейнер: TS
Видео кодек: H.264
Аудио кодек: AC3
Видео: h.264,1280*720,~10.2 Mbps ,50fps
Аудио: AC-3,448 Kbps,48.0 KHz,6 channels
Аудио 2: MPEG Audio,192 Kbps,48.0 KHz, 2 channels

Отчёт DVDInfo/MediaInfo/BDInfo
C:\kino\20130829 0133 RICHARD GALLIANO QUARTET.ts
General #8500
ID : 8500 (0x2134)
Complete name : C:\kino\20130829 0133 RICHARD GALLIANO QUARTET.ts
Format : MPEG-TS
File size : 4.38 GiB
Duration : 53mn 46s
Overall bit rate mode : Variable
Overall bit rate : 11.7 Mbps
Video #562
ID : 562 (0x232)
Menu ID : 951 (0x3B7)
Format : AVC
Format/Info : Advanced Video Codec
Format profile : High@L4.0
Format settings, CABAC : Yes
Format settings, ReFrames : 3 frames
Format settings, GOP : M=2, N=24
Codec ID : 27
Duration : 53mn 45s
Bit rate : 10.2 Mbps
Width : 1 280 pixels
Height : 720 pixels
Display aspect ratio : 16:9
Frame rate : 50.000 fps
Standard : Component
Color space : YUV
Chroma subsampling : 4:2:0
Bit depth : 8 bits
Scan type : Progressive
Bits/(Pixel*Frame) : 0.222
Stream size : 3.85 GiB (88%)
Encryption : TPS-Crypt or Viaccess
Color primaries : BT.709
Transfer characteristics : BT.709
Matrix coefficients : BT.709
Audio #563
ID : 563 (0x233)
Menu ID : 951 (0x3B7)
Format : MPEG Audio
Format version : Version 1
Format profile : Layer 2
Mode : Joint stereo
Mode extension : Intensity Stereo + MS Stereo
Codec ID : 3
Duration : 53mn 46s
Bit rate mode : Constant
Bit rate : 192 Kbps
Channel(s) : 2 channels
Sampling rate : 48.0 KHz
Compression mode : Lossy
Delay relative to video : -641ms
Stream size : 73.8 MiB (2%)
Language : Italian
Language, more info : Clean effects
Encryption : TPS-Crypt or Viaccess
Audio #564
ID : 564 (0x234)
Menu ID : 951 (0x3B7)
Format : MPEG Audio
Format version : Version 1
Format profile : Layer 2
Mode : Joint stereo
Mode extension : Intensity Stereo + MS Stereo
Codec ID : 3
Duration : 53mn 46s
Bit rate mode : Constant
Bit rate : 192 Kbps
Channel(s) : 2 channels
Sampling rate : 48.0 KHz
Compression mode : Lossy
Delay relative to video : -665ms
Stream size : 73.8 MiB (2%)
Language : English
Language, more info : Clean effects
Encryption : TPS-Crypt or Viaccess
Audio #565
ID : 565 (0x235)
Menu ID : 951 (0x3B7)
Format : AC-3
Format/Info : Audio Coding 3
Mode extension : CM (complete main)
Format settings, Endianness : Big
Codec ID : 6
Duration : 53mn 46s
Bit rate mode : Constant
Bit rate : 448 Kbps
Channel(s) : 6 channels
Channel positions : Front: L C R, Side: L R, LFE
Sampling rate : 48.0 KHz
Bit depth : 16 bits
Compression mode : Lossy
Delay relative to video : -681ms
Stream size : 172 MiB (4%)
Language : Italian
Language, more info : Clean effects
Encryption : TPS-Crypt or Viaccess
Text #567-100
ID : 567 (0x237)-100
Menu ID : 951 (0x3B7)
Format : Teletext
Language : Italian
Text #567-777
ID : 567 (0x237)-777
Menu ID : 951 (0x3B7)
Format : Teletext Subtitle
Language : Italian
Any questions - support@pro-jazz.com. Есть вопросы - support@pro-jazz.com
343
Нет комментариев. Ваш будет первым!