Вы используете незарегистрированную версию компонента "Вкладки"!

Поиск

2012 VA - A MusiCares - Tribute to Barbra Streisand [Blu-ray]

2012 VA - A MusiCares - Tribute to Barbra Streisand [Blu-ray]
Описание:

On February 11, 2011, Barbra Streisand was honored as the 2011 MusiCares Person of the Year.At a gala event in Los Angeles, Barbra and an all-star cast of guests performed many of the songs she made famous throughout her illustrious career.Features guests Tony Bennett, Herbie Hancock, Faith Hill, Diana Krall, Barry Manilow, Leann Rimes, Seal,Stevie Wonder,and others, as well as two songs performed by Streisand herself. Proceeds from the sale of this product will provide essential support for MusiCares®,which ensures that music people have a place to turn in times of financial, medical and personal need.

Продолжительность: 01:04:30
Год выпуска: 2012

Качество: Blu-ray
Контейнер: BDMV
Видео кодек: MPEG4
Аудио кодек: DTS, PCM
Видео: MPEG4 Video (H264) 1920x1080 29.97fps 38.2 Mbps
Аудио 1: English DTS-HD MA 5.1 (48 kHz / 4611 kbps / 24-bit)
Аудио 2: English LPCM 2.0 (48 kHz / 2304 kbps / 24-bit)

Отчёт DVDInfo/MediaInfo/BDInfo
Disc Title: A MusiCares Tribute To Barbra
Disc Size: 22 128 275 350 bytes
Protection: AACS
BD-Java: Yes
BDInfo: 0.5.6

Notes:

BDINFO HOME:
Cinema Squid
http://www.cinemasquid.com/blu-ray/tools/bdinfo

INCLUDES FORUMS REPORT FOR:
AVS Forum Blu-ray Audio and Video Specifications Thread
http://www.avsforum.com/avs-vb/showthread.php?t=1155731

********************
PLAYLIST: 00000.MPLS
********************

<--- BEGIN FORUMS PASTE --->
Код:
Total Video
Title Codec Length Movie Size Disc Size Bitrate Bitrate Main Audio Track Secondary Audio Track
----- ------ ------- -------------- -------------- ------- ------- ------------------ ---------------------
00000.MPLS AVC 1:04:30 21 278 711 808 22 128 275 350 43,98 34,94 DTS-HD Master 5.1 4533Kbps (48kHz/24-bit) LPCM 2.0 2304Kbps (48kHz/24-bit)
Код:
DISC INFO:

Disc Title: A MusiCares Tribute To Barbra
Disc Size: 22 128 275 350 bytes
Protection: AACS
BD-Java: Yes
BDInfo: 0.5.6

PLAYLIST REPORT:

Name: 00000.MPLS
Length: 1:04:30 (h:m:s)
Size: 21 278 711 808 bytes
Total Bitrate: 43,98 Mbps

VIDEO:

Codec Bitrate Description
----- ------- -----------
MPEG-4 AVC Video 34940 kbps 1080i / 29,970 fps / 16:9 / High Profile 4.1

AUDIO:

Codec Language Bitrate Description
----- -------- ------- -----------
DTS-HD Master Audio English 4533 kbps 5.1 / 48 kHz / 4533 kbps / 24-bit (DTS Core: 5.1 / 48 kHz / 1509 kbps / 24-bit)
LPCM Audio English 2304 kbps 2.0 / 48 kHz / 2304 kbps / 24-bit

FILES:

Name Time In Length Size Total Bitrate
---- ------- ------ ---- -------------
00000.M2TS 0:00:00.000 1:04:30.533 21 278 711 808 43 981

CHAPTERS:

Number Time In Length Avg Video Rate Max 1-Sec Rate Max 1-Sec Time Max 5-Sec Rate Max 5-Sec Time Max 10Sec Rate Max 10Sec Time Avg Frame Size Max Frame Size Max Frame Time
------ ------- ------ -------------- -------------- -------------- -------------- -------------- -------------- -------------- -------------- -------------- --------------
1 0:00:00.000 1:04:30.533 34 940 kbps 45 577 kbps 00:24:44.583 37 560 kbps 00:55:45.909 36 316 kbps 00:04:19.926 145 729 bytes 766 801 bytes 00:06:38.231

STREAM DIAGNOSTICS:

File PID Type Codec Language Seconds Bitrate Bytes Packets
---- --- ---- ----- -------- -------------- -------------- ------------- -----
00000.M2TS 4113 (0x1011) 0x1B AVC 3870,467 34 940 16 904 451 778 91 939 718
00000.M2TS 4352 (0x1100) 0x86 DTS-HD MA eng (English) 3870,467 4 533 2 193 014 520 12 522 088
00000.M2TS 4353 (0x1101) 0x80 LPCM eng (English) 3870,467 2 310 1 117 800 400 6 192 800
<---- END FORUMS PASTE ---->

QUICK SUMMARY:

Disc Title: A MusiCares Tribute To Barbra
Disc Size: 22 128 275 350 bytes
Protection: AACS
BD-Java: Yes
Playlist: 00000.MPLS
Size: 21 278 711 808 bytes
Length: 1:04:30
Total Bitrate: 43,98 Mbps
Video: MPEG-4 AVC Video / 34940 kbps / 1080i / 29,970 fps / 16:9 / High Profile 4.1
Audio: English / DTS-HD Master Audio / 5.1 / 48 kHz / 4533 kbps / 24-bit (DTS Core: 5.1 / 48 kHz / 1509 kbps / 24-bit)
Audio: English / LPCM Audio / 2.0 / 48 kHz / 2304 kbps / 24-bit

********************
PLAYLIST: 01000.MPLS
********************

<--- BEGIN FORUMS PASTE --->
Код:
Total Video
Title Codec Length Movie Size Disc Size Bitrate Bitrate Main Audio Track Secondary Audio Track
----- ------ ------- -------------- -------------- ------- ------- ------------------ ---------------------
01000.MPLS AVC 1:04:30 21 278 711 808 22 128 275 350 43,98 34,94 DTS-HD Master 5.1 4533Kbps (48kHz/24-bit) LPCM 2.0 2304Kbps (48kHz/24-bit)
Код:
DISC INFO:

Disc Title: A MusiCares Tribute To Barbra
Disc Size: 22 128 275 350 bytes
Protection: AACS
BD-Java: Yes
BDInfo: 0.5.6

PLAYLIST REPORT:

Name: 01000.MPLS
Length: 1:04:30 (h:m:s)
Size: 21 278 711 808 bytes
Total Bitrate: 43,98 Mbps

VIDEO:

Codec Bitrate Description
----- ------- -----------
MPEG-4 AVC Video 34940 kbps 1080i / 29,970 fps / 16:9 / High Profile 4.1

AUDIO:

Codec Language Bitrate Description
----- -------- ------- -----------
DTS-HD Master Audio English 4533 kbps 5.1 / 48 kHz / 4533 kbps / 24-bit (DTS Core: 5.1 / 48 kHz / 1509 kbps / 24-bit)
LPCM Audio English 2304 kbps 2.0 / 48 kHz / 2304 kbps / 24-bit

FILES:

Name Time In Length Size Total Bitrate
---- ------- ------ ---- -------------
00000.M2TS 0:00:00.000 1:04:30.533 21 278 711 808 43 981

CHAPTERS:

Number Time In Length Avg Video Rate Max 1-Sec Rate Max 1-Sec Time Max 5-Sec Rate Max 5-Sec Time Max 10Sec Rate Max 10Sec Time Avg Frame Size Max Frame Size Max Frame Time
------ ------- ------ -------------- -------------- -------------- -------------- -------------- -------------- -------------- -------------- -------------- --------------
1 0:00:00.000 0:05:22.021 34 929 kbps 44 635 kbps 00:02:48.234 37 513 kbps 00:04:24.964 36 316 kbps 00:04:19.926 145 669 bytes 720 405 bytes 00:00:16.716
2 0:05:22.021 0:04:28.134 34 980 kbps 44 430 kbps 00:06:12.038 37 012 kbps 00:09:36.776 35 985 kbps 00:06:53.079 145 896 bytes 766 801 bytes 00:06:38.231
3 0:09:50.156 0:03:17.564 35 034 kbps 44 283 kbps 00:11:31.157 37 425 kbps 00:12:22.808 36 181 kbps 00:12:16.869 146 121 bytes 667 483 bytes 00:13:07.720
4 0:13:07.720 0:06:19.112 34 988 kbps 44 234 kbps 00:17:33.018 37 269 kbps 00:19:10.482 36 021 kbps 00:14:22.261 145 929 bytes 715 897 bytes 00:18:50.329
5 0:19:26.832 0:02:29.282 35 002 kbps 43 489 kbps 00:19:28.066 37 222 kbps 00:21:03.095 36 224 kbps 00:21:44.703 145 987 bytes 730 412 bytes 00:21:52.377
6 0:21:56.114 0:03:40.253 35 011 kbps 45 577 kbps 00:24:44.583 37 321 kbps 00:24:40.545 36 064 kbps 00:22:24.509 146 026 bytes 766 471 bytes 00:23:28.974
7 0:25:36.368 0:05:21.320 34 991 kbps 45 474 kbps 00:30:37.969 37 297 kbps 00:28:54.799 35 900 kbps 00:25:58.023 145 941 bytes 729 455 bytes 00:28:54.966
8 0:30:57.689 0:04:39.812 34 856 kbps 43 995 kbps 00:34:55.560 37 122 kbps 00:31:47.505 36 198 kbps 00:34:55.626 145 380 bytes 666 673 bytes 00:33:19.764
9 0:35:37.502 0:04:35.708 34 987 kbps 44 530 kbps 00:39:11.749 36 849 kbps 00:35:44.408 36 010 kbps 00:39:39.710 145 925 bytes 713 089 bytes 00:39:13.651
10 0:40:13.210 0:04:25.365 34 995 kbps 44 267 kbps 00:44:22.526 37 226 kbps 00:43:30.007 36 266 kbps 00:43:05.950 145 958 bytes 715 959 bytes 00:44:21.892
11 0:44:38.575 0:02:59.712 35 001 kbps 43 719 kbps 00:45:29.960 36 794 kbps 00:47:00.517 35 899 kbps 00:46:53.110 145 981 bytes 713 889 bytes 00:47:36.286
12 0:47:38.288 0:06:48.408 35 013 kbps 44 706 kbps 00:50:40.971 37 078 kbps 00:53:57.367 36 125 kbps 00:51:51.975 146 033 bytes 727 774 bytes 00:52:01.818
13 0:54:26.696 0:04:18.057 34 986 kbps 42 588 kbps 00:55:44.307 37 560 kbps 00:55:45.909 36 108 kbps 00:57:24.607 145 920 bytes 642 698 bytes 00:58:42.519
14 0:58:44.754 0:04:28.735 34 997 kbps 43 666 kbps 00:59:05.842 36 956 kbps 01:00:18.381 35 922 kbps 01:01:55.411 145 967 bytes 703 670 bytes 01:03:07.750
15 1:03:13.489 0:01:15.975 33 351 kbps 45 433 kbps 01:03:58.501 37 492 kbps 01:04:00.303 35 917 kbps 01:03:50.693 139 100 bytes 715 407 bytes 01:04:15.017
16 1:04:29.465 0:00:01.067 68 kbps 73 kbps 01:04:29.465 0 kbps 00:00:00.000 0 kbps 00:00:00.000 304 bytes 876 bytes 01:04:29.498

STREAM DIAGNOSTICS:

File PID Type Codec Language Seconds Bitrate Bytes Packets
---- --- ---- ----- -------- -------------- -------------- ------------- -----
00000.M2TS 4113 (0x1011) 0x1B AVC 3870,467 34 940 16 904 451 778 91 939 718
00000.M2TS 4352 (0x1100) 0x86 DTS-HD MA eng (English) 3870,467 4 533 2 193 014 520 12 522 088
00000.M2TS 4353 (0x1101) 0x80 LPCM eng (English) 3870,467 2 310 1 117 800 400 6 192 800
<---- END FORUMS PASTE ---->

QUICK SUMMARY:

Disc Title: A MusiCares Tribute To Barbra
Disc Size: 22 128 275 350 bytes
Protection: AACS
BD-Java: Yes
Playlist: 01000.MPLS
Size: 21 278 711 808 bytes
Length: 1:04:30
Total Bitrate: 43,98 Mbps
Video: MPEG-4 AVC Video / 34940 kbps / 1080i / 29,970 fps / 16:9 / High Profile 4.1
Audio: English / DTS-HD Master Audio / 5.1 / 48 kHz / 4533 kbps / 24-bit (DTS Core: 5.1 / 48 kHz / 1509 kbps / 24-bit)
Audio: English / LPCM Audio / 2.0 / 48 kHz / 2304 kbps / 24-bit

********************
PLAYLIST: 01001.MPLS
********************

<--- BEGIN FORUMS PASTE --->
Код:
Total Video
Title Codec Length Movie Size Disc Size Bitrate Bitrate Main Audio Track Secondary Audio Track
----- ------ ------- -------------- -------------- ------- ------- ------------------ ---------------------
01001.MPLS AVC 1:04:30 21 278 711 808 22 128 275 350 43,98 34,94 DTS-HD Master 5.1 4533Kbps (48kHz/24-bit) LPCM 2.0 2304Kbps (48kHz/24-bit)
Код:
DISC INFO:

Disc Title: A MusiCares Tribute To Barbra
Disc Size: 22 128 275 350 bytes
Protection: AACS
BD-Java: Yes
BDInfo: 0.5.6

PLAYLIST REPORT:

Name: 01001.MPLS
Length: 1:04:30 (h:m:s)
Size: 21 278 711 808 bytes
Total Bitrate: 43,98 Mbps

VIDEO:

Codec Bitrate Description
----- ------- -----------
MPEG-4 AVC Video 34940 kbps 1080i / 29,970 fps / 16:9 / High Profile 4.1

AUDIO:

Codec Language Bitrate Description
----- -------- ------- -----------
DTS-HD Master Audio English 4533 kbps 5.1 / 48 kHz / 4533 kbps / 24-bit (DTS Core: 5.1 / 48 kHz / 1509 kbps / 24-bit)
LPCM Audio English 2304 kbps 2.0 / 48 kHz / 2304 kbps / 24-bit

FILES:

Name Time In Length Size Total Bitrate
---- ------- ------ ---- -------------
00000.M2TS 0:00:00.000 1:04:30.533 21 278 711 808 43 981

CHAPTERS:

Number Time In Length Avg Video Rate Max 1-Sec Rate Max 1-Sec Time Max 5-Sec Rate Max 5-Sec Time Max 10Sec Rate Max 10Sec Time Avg Frame Size Max Frame Size Max Frame Time
------ ------- ------ -------------- -------------- -------------- -------------- -------------- -------------- -------------- -------------- -------------- --------------
1 0:00:00.000 0:05:22.021 34 929 kbps 44 635 kbps 00:02:48.234 37 513 kbps 00:04:24.964 36 316 kbps 00:04:19.926 145 669 bytes 720 405 bytes 00:00:16.716
2 0:05:22.021 0:04:28.134 34 980 kbps 44 430 kbps 00:06:12.038 37 012 kbps 00:09:36.776 35 985 kbps 00:06:53.079 145 896 bytes 766 801 bytes 00:06:38.231
3 0:09:50.156 0:03:17.564 35 034 kbps 44 283 kbps 00:11:31.157 37 425 kbps 00:12:22.808 36 181 kbps 00:12:16.869 146 121 bytes 667 483 bytes 00:13:07.720
4 0:13:07.720 0:06:19.078 34 978 kbps 44 234 kbps 00:17:33.018 37 269 kbps 00:19:10.482 36 021 kbps 00:14:22.261 145 888 bytes 715 897 bytes 00:18:50.329
5 0:19:26.798 0:02:29.315 35 027 kbps 43 489 kbps 00:19:28.066 37 222 kbps 00:21:03.095 36 224 kbps 00:21:44.703 146 090 bytes 730 412 bytes 00:21:52.377
6 0:21:56.114 0:03:40.253 35 011 kbps 45 577 kbps 00:24:44.583 37 321 kbps 00:24:40.545 36 064 kbps 00:22:24.509 146 026 bytes 766 471 bytes 00:23:28.974
7 0:25:36.368 0:05:21.320 34 991 kbps 45 474 kbps 00:30:37.969 37 297 kbps 00:28:54.799 35 900 kbps 00:25:58.023 145 941 bytes 729 455 bytes 00:28:54.966
8 0:30:57.689 0:04:39.812 34 856 kbps 43 995 kbps 00:34:55.560 37 122 kbps 00:31:47.505 36 198 kbps 00:34:55.626 145 380 bytes 666 673 bytes 00:33:19.764
9 0:35:37.502 0:04:35.708 34 987 kbps 44 530 kbps 00:39:11.749 36 849 kbps 00:35:44.408 36 010 kbps 00:39:39.710 145 925 bytes 713 089 bytes 00:39:13.651
10 0:40:13.210 0:04:25.365 34 995 kbps 44 267 kbps 00:44:22.526 37 226 kbps 00:43:30.007 36 266 kbps 00:43:05.950 145 958 bytes 715 959 bytes 00:44:21.892
11 0:44:38.575 0:02:59.712 35 001 kbps 43 719 kbps 00:45:29.960 36 794 kbps 00:47:00.517 35 899 kbps 00:46:53.110 145 981 bytes 713 889 bytes 00:47:36.286
12 0:47:38.288 0:06:48.408 35 013 kbps 44 706 kbps 00:50:40.971 37 078 kbps 00:53:57.367 36 125 kbps 00:51:51.975 146 033 bytes 727 774 bytes 00:52:01.818
13 0:54:26.696 0:04:18.057 34 986 kbps 42 588 kbps 00:55:44.307 37 560 kbps 00:55:45.909 36 108 kbps 00:57:24.607 145 920 bytes 642 698 bytes 00:58:42.519
14 0:58:44.754 0:04:28.701 34 998 kbps 43 666 kbps 00:59:05.842 36 956 kbps 01:00:18.381 35 922 kbps 01:01:55.411 145 969 bytes 703 670 bytes 01:03:07.750
15 1:03:13.456 0:01:16.009 33 349 kbps 45 433 kbps 01:03:58.501 37 492 kbps 01:04:00.303 35 917 kbps 01:03:50.693 139 095 bytes 715 407 bytes 01:04:15.017
16 1:04:29.465 0:00:01.067 68 kbps 73 kbps 01:04:29.465 0 kbps 00:00:00.000 0 kbps 00:00:00.000 304 bytes 876 bytes 01:04:29.498

STREAM DIAGNOSTICS:

File PID Type Codec Language Seconds Bitrate Bytes Packets
---- --- ---- ----- -------- -------------- -------------- ------------- -----
00000.M2TS 4113 (0x1011) 0x1B AVC 3870,467 34 940 16 904 451 778 91 939 718
00000.M2TS 4352 (0x1100) 0x86 DTS-HD MA eng (English) 3870,467 4 533 2 193 014 520 12 522 088
00000.M2TS 4353 (0x1101) 0x80 LPCM eng (English) 3870,467 2 310 1 117 800 400 6 192 800
<---- END FORUMS PASTE ---->

QUICK SUMMARY:

Disc Title: A MusiCares Tribute To Barbra
Disc Size: 22 128 275 350 bytes
Protection: AACS
BD-Java: Yes
Playlist: 01001.MPLS
Size: 21 278 711 808 bytes
Length: 1:04:30
Total Bitrate: 43,98 Mbps
Video: MPEG-4 AVC Video / 34940 kbps / 1080i / 29,970 fps / 16:9 / High Profile 4.1
Audio: English / DTS-HD Master Audio / 5.1 / 48 kHz / 4533 kbps / 24-bit (DTS Core: 5.1 / 48 kHz / 1509 kbps / 24-bit)
Audio: English / LPCM Audio / 2.0 / 48 kHz / 2304 kbps / 24-bit

********************
PLAYLIST: 00001.MPLS
********************

<--- BEGIN FORUMS PASTE --->
Код:
Total Video
Title Codec Length Movie Size Disc Size Bitrate Bitrate Main Audio Track Secondary Audio Track
----- ------ ------- -------------- -------------- ------- ------- ------------------ ---------------------
00001.MPLS AVC 0:01:55 346 429 440 22 128 275 350 24,00 19,38 LPCM 2.0 1536Kbps (48kHz/16-bit) LPCM 2.0 1536Kbps (48kHz/16-bit)
Код:
DISC INFO:

Disc Title: A MusiCares Tribute To Barbra
Disc Size: 22 128 275 350 bytes
Protection: AACS
BD-Java: Yes
BDInfo: 0.5.6

PLAYLIST REPORT:

Name: 00001.MPLS
Length: 0:01:55 (h:m:s)
Size: 346 429 440 bytes
Total Bitrate: 24,00 Mbps

VIDEO:

Codec Bitrate Description
----- ------- -----------
MPEG-4 AVC Video 19379 kbps 1080p / 23,976 fps / 16:9 / High Profile 4.1

AUDIO:

Codec Language Bitrate Description
----- -------- ------- -----------
LPCM Audio Undetermined 1536 kbps 2.0 / 48 kHz / 1536 kbps / 16-bit
LPCM Audio Undetermined 1536 kbps 2.0 / 48 kHz / 1536 kbps / 16-bit

FILES:

Name Time In Length Size Total Bitrate
---- ------- ------ ---- -------------
00001.M2TS 0:00:00.000 0:01:55.490 346 429 440 23 997

CHAPTERS:

Number Time In Length Avg Video Rate Max 1-Sec Rate Max 1-Sec Time Max 5-Sec Rate Max 5-Sec Time Max 10Sec Rate Max 10Sec Time Avg Frame Size Max Frame Size Max Frame Time
------ ------- ------ -------------- -------------- -------------- -------------- -------------- -------------- -------------- -------------- -------------- --------------
1 0:00:00.000 0:01:55.490 19 379 kbps 33 314 kbps 00:01:20.705 22 252 kbps 00:00:00.625 20 718 kbps 00:00:20.145 101 035 bytes 972 173 bytes 00:00:00.917

STREAM DIAGNOSTICS:

File PID Type Codec Language Seconds Bitrate Bytes Packets
---- --- ---- ----- -------- -------------- -------------- ------------- -----
00001.M2TS 4113 (0x1011) 0x1B AVC 115,407 19 393 279 766 428 1 522 090
00001.M2TS 4352 (0x1100) 0x80 LPCM und (Undetermined) 115,407 1 543 22 258 760 138 540
00001.M2TS 4353 (0x1101) 0x80 LPCM und (Undetermined) 115,407 1 543 22 258 760 138 540
<---- END FORUMS PASTE ---->

QUICK SUMMARY:

Disc Title: A MusiCares Tribute To Barbra
Disc Size: 22 128 275 350 bytes
Protection: AACS
BD-Java: Yes
Playlist: 00001.MPLS
Size: 346 429 440 bytes
Length: 0:01:55
Total Bitrate: 24,00 Mbps
Video: MPEG-4 AVC Video / 19379 kbps / 1080p / 23,976 fps / 16:9 / High Profile 4.1
Audio: Undetermined / LPCM Audio / 2.0 / 48 kHz / 1536 kbps / 16-bit
Audio: Undetermined / LPCM Audio / 2.0 / 48 kHz / 1536 kbps / 16-bit

********************
PLAYLIST: 01002.MPLS
********************

<--- BEGIN FORUMS PASTE --->
Код:
Total Video
Title Codec Length Movie Size Disc Size Bitrate Bitrate Main Audio Track Secondary Audio Track
----- ------ ------- -------------- -------------- ------- ------- ------------------ ---------------------
01002.MPLS AVC 0:01:55 346 429 440 22 128 275 350 24,00 19,38 LPCM 2.0 1536Kbps (48kHz/16-bit) LPCM 2.0 1536Kbps (48kHz/16-bit)
Код:
DISC INFO:

Disc Title: A MusiCares Tribute To Barbra
Disc Size: 22 128 275 350 bytes
Protection: AACS
BD-Java: Yes
BDInfo: 0.5.6

PLAYLIST REPORT:

Name: 01002.MPLS
Length: 0:01:55 (h:m:s)
Size: 346 429 440 bytes
Total Bitrate: 24,00 Mbps

VIDEO:

Codec Bitrate Description
----- ------- -----------
MPEG-4 AVC Video 19379 kbps 1080p / 23,976 fps / 16:9 / High Profile 4.1

AUDIO:

Codec Language Bitrate Description
----- -------- ------- -----------
LPCM Audio Undetermined 1536 kbps 2.0 / 48 kHz / 1536 kbps / 16-bit
LPCM Audio Undetermined 1536 kbps 2.0 / 48 kHz / 1536 kbps / 16-bit

FILES:

Name Time In Length Size Total Bitrate
---- ------- ------ ---- -------------
00001.M2TS 0:00:00.000 0:01:55.490 346 429 440 23 997

CHAPTERS:

Number Time In Length Avg Video Rate Max 1-Sec Rate Max 1-Sec Time Max 5-Sec Rate Max 5-Sec Time Max 10Sec Rate Max 10Sec Time Avg Frame Size Max Frame Size Max Frame Time
------ ------- ------ -------------- -------------- -------------- -------------- -------------- -------------- -------------- -------------- -------------- --------------
1 0:00:00.000 0:01:54.447 19 478 kbps 33 314 kbps 00:01:20.705 22 252 kbps 00:00:00.625 20 718 kbps 00:00:20.145 101 511 bytes 972 173 bytes 00:00:00.917
2 0:01:54.447 0:00:01.042 8 592 kbps 8 950 kbps 00:01:54.447 0 kbps 00:00:00.000 0 kbps 00:00:00.000 46 662 bytes 920 435 bytes 00:01:54.697

STREAM DIAGNOSTICS:

File PID Type Codec Language Seconds Bitrate Bytes Packets
---- --- ---- ----- -------- -------------- -------------- ------------- -----
00001.M2TS 4113 (0x1011) 0x1B AVC 115,407 19 393 279 766 428 1 522 090
00001.M2TS 4352 (0x1100) 0x80 LPCM und (Undetermined) 115,407 1 543 22 258 760 138 540
00001.M2TS 4353 (0x1101) 0x80 LPCM und (Undetermined) 115,407 1 543 22 258 760 138 540
<---- END FORUMS PASTE ---->

QUICK SUMMARY:

Disc Title: A MusiCares Tribute To Barbra
Disc Size: 22 128 275 350 bytes
Protection: AACS
BD-Java: Yes
Playlist: 01002.MPLS
Size: 346 429 440 bytes
Length: 0:01:55
Total Bitrate: 24,00 Mbps
Video: MPEG-4 AVC Video / 19379 kbps / 1080p / 23,976 fps / 16:9 / High Profile 4.1
Audio: Undetermined / LPCM Audio / 2.0 / 48 kHz / 1536 kbps / 16-bit
Audio: Undetermined / LPCM Audio / 2.0 / 48 kHz / 1536 kbps / 16-bit

********************
PLAYLIST: 00002.MPLS
********************

<--- BEGIN FORUMS PASTE --->
Код:
Total Video
Title Codec Length Movie Size Disc Size Bitrate Bitrate Main Audio Track Secondary Audio Track
----- ------ ------- -------------- -------------- ------- ------- ------------------ ---------------------
00002.MPLS AVC 0:01:34 433 268 736 22 128 275 350 36,85 32,87 LPCM 2.0 2304Kbps (48kHz/24-bit)
Код:
DISC INFO:

Disc Title: A MusiCares Tribute To Barbra
Disc Size: 22 128 275 350 bytes
Protection: AACS
BD-Java: Yes
BDInfo: 0.5.6

PLAYLIST REPORT:

Name: 00002.MPLS
Length: 0:01:34 (h:m:s)
Size: 433 268 736 bytes
Total Bitrate: 36,85 Mbps

VIDEO:

Codec Bitrate Description
----- ------- -----------
MPEG-4 AVC Video 32869 kbps 1080i / 29,970 fps / 16:9 / High Profile 4.1

AUDIO:

Codec Language Bitrate Description
----- -------- ------- -----------
LPCM Audio Undetermined 2304 kbps 2.0 / 48 kHz / 2304 kbps / 24-bit

FILES:

Name Time In Length Size Total Bitrate
---- ------- ------ ---- -------------
00002.M2TS 0:00:00.000 0:01:34.060 433 268 736 36 850

CHAPTERS:

Number Time In Length Avg Video Rate Max 1-Sec Rate Max 1-Sec Time Max 5-Sec Rate Max 5-Sec Time Max 10Sec Rate Max 10Sec Time Avg Frame Size Max Frame Size Max Frame Time
------ ------- ------ -------------- -------------- -------------- -------------- -------------- -------------- -------------- -------------- -------------- --------------
1 0:00:00.000 0:01:34.060 32 869 kbps 45 006 kbps 00:00:16.750 37 242 kbps 00:00:05.972 36 055 kbps 00:00:04.704 137 092 bytes 357 242 bytes 00:00:13.680

STREAM DIAGNOSTICS:

File PID Type Codec Language Seconds Bitrate Bytes Packets
---- --- ---- ----- -------- -------------- -------------- ------------- -----
00002.M2TS 4113 (0x1011) 0x1B AVC 93,994 32 893 386 462 143 2 101 951
00002.M2TS 4352 (0x1100) 0x80 LPCM und (Undetermined) 93,994 2 311 27 155 864 150 448
<---- END FORUMS PASTE ---->

QUICK SUMMARY:

Disc Title: A MusiCares Tribute To Barbra
Disc Size: 22 128 275 350 bytes
Protection: AACS
BD-Java: Yes
Playlist: 00002.MPLS
Size: 433 268 736 bytes
Length: 0:01:34
Total Bitrate: 36,85 Mbps
Video: MPEG-4 AVC Video / 32869 kbps / 1080i / 29,970 fps / 16:9 / High Profile 4.1
Audio: Undetermined / LPCM Audio / 2.0 / 48 kHz / 2304 kbps / 24-bit

********************
PLAYLIST: 01003.MPLS
********************

<--- BEGIN FORUMS PASTE --->
Код:
Total Video
Title Codec Length Movie Size Disc Size Bitrate Bitrate Main Audio Track Secondary Audio Track
----- ------ ------- -------------- -------------- ------- ------- ------------------ ---------------------
01003.MPLS AVC 0:01:34 433 268 736 22 128 275 350 36,85 32,87 LPCM 2.0 2304Kbps (48kHz/24-bit)
Код:
DISC INFO:

Disc Title: A MusiCares Tribute To Barbra
Disc Size: 22 128 275 350 bytes
Protection: AACS
BD-Java: Yes
BDInfo: 0.5.6

PLAYLIST REPORT:

Name: 01003.MPLS
Length: 0:01:34 (h:m:s)
Size: 433 268 736 bytes
Total Bitrate: 36,85 Mbps

VIDEO:

Codec Bitrate Description
----- ------- -----------
MPEG-4 AVC Video 32869 kbps 1080i / 29,970 fps / 16:9 / High Profile 4.1

AUDIO:

Codec Language Bitrate Description
----- -------- ------- -----------
LPCM Audio Undetermined 2304 kbps 2.0 / 48 kHz / 2304 kbps / 24-bit

FILES:

Name Time In Length Size Total Bitrate
---- ------- ------ ---- -------------
00002.M2TS 0:00:00.000 0:01:34.060 433 268 736 36 850

CHAPTERS:

Number Time In Length Avg Video Rate Max 1-Sec Rate Max 1-Sec Time Max 5-Sec Rate Max 5-Sec Time Max 10Sec Rate Max 10Sec Time Avg Frame Size Max Frame Size Max Frame Time
------ ------- ------ -------------- -------------- -------------- -------------- -------------- -------------- -------------- -------------- -------------- --------------
1 0:00:00.000 0:01:33.059 33 222 kbps 45 006 kbps 00:00:16.750 37 242 kbps 00:00:05.972 36 055 kbps 00:00:04.704 138 514 bytes 357 242 bytes 00:00:13.680
2 0:01:33.059 0:00:01.000 66 kbps 0 kbps 00:00:00.000 0 kbps 00:00:00.000 0 kbps 00:00:00.000 284 bytes 786 bytes 00:01:33.193

STREAM DIAGNOSTICS:

File PID Type Codec Language Seconds Bitrate Bytes Packets
---- --- ---- ----- -------- -------------- -------------- ------------- -----
00002.M2TS 4113 (0x1011) 0x1B AVC 93,994 32 893 386 462 143 2 101 951
00002.M2TS 4352 (0x1100) 0x80 LPCM und (Undetermined) 93,994 2 311 27 155 864 150 448
<---- END FORUMS PASTE ---->

QUICK SUMMARY:

Disc Title: A MusiCares Tribute To Barbra
Disc Size: 22 128 275 350 bytes
Protection: AACS
BD-Java: Yes
Playlist: 01003.MPLS
Size: 433 268 736 bytes
Length: 0:01:34
Total Bitrate: 36,85 Mbps
Video: MPEG-4 AVC Video / 32869 kbps / 1080i / 29,970 fps / 16:9 / High Profile 4.1
Audio: Undetermined / LPCM Audio / 2.0 / 48 kHz / 2304 kbps / 24-bit
Any questions - support@pro-jazz.com. Есть вопросы - support@pro-jazz.com
435
18:48