Вы используете незарегистрированную версию компонента "Вкладки"!

Поиск

2011 Aldo Romano - Tribute to Don Cherry at Jazz a la Villette [HDTV 1080p]

2011 Aldo Romano - Tribute to Don Cherry at Jazz a la Villette [HDTV 1080p]
Дата проведения концерта (записи):
4 сентября 2011
Место проведения:
Cite de la musique, Paris
Время звучания:
00:59:45
Главы (разбивка по трекам):
нет
Качество:
HDTV
Контейнер:
MP4
Состав:
  • Geraldine Laurent
  • Fabrizio Bosso
  • Henri Texier
  • Aldo Romano
Треклист:

1. Music Man
2. Jayne
3. Spring is Here
4. Mothers of the Evil
5. The Bridges
6. Don Song
7. lephantasy
8. Lontananza
9. Gush!!

Видео:
1920x1080 (16:9), 25.00 fps, AVC, 8959 Кбит, 0.172 bits/pixel
Аудио#1:
48.0 KHz, AAC-LC, 2 ch, stereo, 128-384 Kbps VBR
Описание:

С самого начала "Music Man", эмблематической темы Дона Черри, где Жеральдин Лоран и Фабрицио Боссо дают жару, мы знаем, что будем смотреть фантастический концерт, который никогда не превратится в душный трибьют. Старейшины, барабанщик-лидер Альдо Романо и контрабасист Анри Тексье, наслаждаются жизненной энергией разных поколений, которая напоминает о великолепии джаза 1960-х годов.

К счастью для нас, Альдо Романо не забыл, что он родился под знаком свободного джаза и что он праздновал вместе с Доном Черри. Он берется за темы, которые остались в памяти людей. Но эта кислотная музыка, обманчиво прирученная, которая казалась нелогичной, когда только появилась, прежде чем завоевать признание, сохраняет свое тревожное измерение, а также свободу выражения и интерпретации.

В короткой и волнующей композиции "Don Song" Анри Тексье заставляет свой контрабас "петь", а две темы из-под пера Альдо Романо (lontazana, Gush) органично вписываются в репертуар, взятый у Орнетта Коулмана (замечательная рифма "Jayne"), Сонни Роллинза ("The Bridge") и Дона Черри.

Отчёт DVDInfo/MediaInfo/BDInfo
Полное имя : G:\DVD\Aldo Romano - Tribute to Don Cherry\Le Festival Jazz a la Villette (Aldo Romano - Tribute to Don Cherry).mp4
Формат : MPEG-4
Профиль формата : Base Media / Version 2
Идентификатор кодека : mp42
Размер файла : 3,90 Гбайт
Продолжительность : 59 м.
Общий поток : 9346 Кбит/сек
Дата кодирования : UTC 2013-12-17 08:26:15
Дата пометки : UTC 2013-12-17 08:26:15
Видео
Идентификатор : 2
Формат : AVC
Формат/Информация : Advanced Video Codec
Профиль формата : Main@L4.0
Параметр CABAC формата : Да
Параметр ReFrames формата : 2 кадра
Идентификатор кодека : avc1
Идентификатор кодека/Информация : Advanced Video Coding
Продолжительность : 59 м.
Вид битрейта : Переменный
Битрейт : 8959 Кбит/сек
Максимальный битрейт : 9001 Кбит/сек
Ширина : 1920 пикселей
Высота : 1088 пикселей
Высота оригинала : 1080 пикселей
Соотношение сторон : 16:9
Соотношение сторон в оригинале : 16:9
Режим частоты кадров : Постоянный
Частота кадров : 25,000 кадров/сек
Частота кадров в оригинале : 12,500 кадров/сек
Цветовое пространство : YUV
Субдискретизация насыщенности : 4:2:0
Битовая глубина : 8 бит
Тип развёртки : Прогрессивная
Бит/(Пиксели*Кадры) : 0.172
Размер потока : 3,74 Гбайт (96%)
Язык : English
Дата кодирования : UTC 2013-12-17 08:26:15
Дата пометки : UTC 2013-12-17 08:26:15
Аудио
Идентификатор : 1
Формат : AAC
Формат/Информация : Advanced Audio Codec
Профиль формата : LC
Идентификатор кодека : 40
Продолжительность : 59 м.
Вид битрейта : Постоянный
Битрейт : 384 Кбит/сек
Номинальный битрейт : 128 Кбит/сек
Каналы : 2 канала
Расположение каналов : Front: L R
Частота : 48,0 КГц
Метод сжатия : С потерями
Размер потока : 164 Мбайт (4%)
Язык : English
Дата кодирования : UTC 2013-12-17 08:26:15
Дата пометки : UTC 2013-12-17 08:26:15
Any questions - support@pro-jazz.com.
Есть вопросы - support@pro-jazz.com
88
Нет комментариев. Ваш будет первым!