Поиск

2009 Diana Krall - Live In Rio [BDRip 720p]

2009 Diana Krall - Live In Rio [BDRip 720p]
Дата проведения концерта (записи):
18 ноября 2008
Место проведения:
Vivo Rio Music Hall, Rio de Janeiro, Brazil
Дата издания диска:
26 мая 2009
Время звучания:
01:50:00
Главы (разбивка по трекам):
есть
Качество:
BDRip
Контейнер:
MKV
Состав:
  • Diana Krall
  • John Clayton
  • Paulinho Da Costa
  • Jeff Hamilton
  • John Pisano
  • Anthony Wilson
Видео:
AVC (h.264) / 1280*720p / 16:9 / 4 056 Kbps / 29.970 fps
Аудио#1:
DTS / 1 510 Kbps / Constant / 48000Hz / 6ch
Описание:

Дайана Кролл долгое время увлекалась босса-новой, типом музыки, который идеально подходит ее утонченному, но чувственному стилю. Кульминацией этого стал ее новый студийный альбом "Quiet Nights" (выпущенный Verve весной 2009 г.) и потрясающий концерт, снятый в доме босанова, Рио-де-Жанейро, в ноябре 2008 г. В сопровождении ее группы и оркестра Диана Кролл предлагает превосходный набор стандартов в истинном стиле босса-новы, но явно несет на себе ее уникальный отпечаток. Этот DVD запечатлел Дайану Кролл в ее лучшем проявлении.

Отчёт DVDInfo/MediaInfo/BDInfo
Format : AVC
Format/Info : Advanced Video Codec
Format profile : High@L4.1
Format settings, CABAC : Yes
Format settings, ReFrames : 5 frames
Muxing mode : Container profile=Unknown@4.1
Codec ID : V_MPEG4/ISO/AVC
Duration : 1h 50mn
Bit rate : 3 920 Kbps
Nominal bit rate : 4 056 Kbps
Width : 1 280 pixels
Height : 720 pixels
Display aspect ratio : 16/9
Frame rate : 29.970 fps
Resolution : 24 bits
Colorimetry : 4:2:0
Scan type : Progressive
Bits/(Pixel*Frame) : 0.142
Stream size : 3.04 GiB (71%)
Title : www.MySiLU.com
Writing library : x264 core 67 r1148M 400740b
Encoding settings : cabac=1 / ref=5 / deblock=1:0:0 / analyse=0x3:0x113 / me=umh / subme=6 / psy_rd=1.0:0.0 / mixed_ref=1 / me_range=16 / chroma_me=1 / trellis=0 / 8x8dct=1 / cqm=2 / deadzone=6,4 / chroma_qp_offset=-2 / threads=6 / nr=0 / decimate=1 / mbaff=0 / bframes=3 / b_pyramid=1 / b_adapt=2 / b_bias=0 / direct=1 / wpredb=1 / keyint=250 / keyint_min=25 / scenecut=40 / rc=2pass / bitrate=4056 / ratetol=1.0 / qcomp=0.60 / qpmin=10 / qpmax=51 / qpstep=4 / cplxblur=20.0 / qblur=0.5 / vbv_maxrate=50000 / vbv_bufsize=50000 / ip_ratio=1.40 / pb_ratio=1.30 / aq=1:1.00
Language : English
Format : DTS
Format/Info : Digital Theater Systems
Codec ID : A_DTS
Duration : 1h 50mn
Bit rate mode : Constant
Bit rate : 1 510 Kbps
Channel(s) : 6 channels
Channel positions : Front: L C R, Surround: L R, LFE
Sampling rate : 48.0 KHz
Resolution : 16 bits
Stream size : 1.17 GiB (27%)
Title : DTScore 1536 Kbps
Language : English
No seeders - write a personal message to M0p94ok. Any questions - support@pro-jazz.com.
Нет сидеров - пишите в личку M0p94ok. Есть вопросы - support@pro-jazz.com
143
Нет комментариев. Ваш будет первым!