Вы используете незарегистрированную версию компонента "Вкладки"!

Поиск

2004 David Murray & The Gwo-Ka Masters - at The New Morning [HDTV 1080p]

2004 David Murray & The Gwo-Ka Masters - at The New Morning [HDTV 1080p]
Стиль:
Дата проведения концерта (записи):
26 ноября 2004
Место проведения:
The New Morning, Paris, France
Время звучания:
01:02:25
Главы (разбивка по трекам):
нет
Качество:
HDTV
Контейнер:
MP4
Состав:
  • David Murray (sax, voix)
  • Jaribu Shahid (basse)
  • Rasul Siddik (trompette)
  • Pheeroan akLaff (batterie)
  • Herve Sambe (guitare)
  • Klod Klavue (tambour ka, voix)
  • Francois Ladrezeau (tambour ka, voix)
Треклист:

1. Gete
2. Monte
3. Go To Jazz
4. Djolla Feeling

Видео:
1920x1080 (16:9), 25.00 fps, AVC, 8968 Кбит, 0.172 bits/pixel
Аудио#1:
48.0 KHz, AAC-LC, 2 ch, stereo, 128-384 Kbps VBR
Отчёт DVDInfo/MediaInfo/BDInfo
Полное имя : \\David Murray\David Murray & The Gwo-Ka Masters - Live at The New Morning.mp4
Формат : MPEG-4
Профиль формата : Base Media / Version 2
Идентификатор кодека : mp42
Размер файла : 4,08 Гбайт
Продолжительность : 1 ч. 2 м.
Общий поток : 9356 Кбит/сек
Дата кодирования : UTC 2013-12-08 09:24:50
Дата пометки : UTC 2013-12-08 09:24:50
Видео
Идентификатор : 2
Формат : AVC
Формат/Информация : Advanced Video Codec
Профиль формата : Main@L4.0
Параметр CABAC формата : Да
Параметр ReFrames формата : 2 кадра
Идентификатор кодека : avc1
Идентификатор кодека/Информация : Advanced Video Coding
Продолжительность : 1 ч. 2 м.
Вид битрейта : Переменный
Битрейт : 8968 Кбит/сек
Максимальный битрейт : 9001 Кбит/сек
Ширина : 1920 пикселей
Высота : 1088 пикселей
Высота оригинала : 1080 пикселей
Соотношение сторон : 16:9
Соотношение сторон в оригинале : 16:9
Режим частоты кадров : Постоянный
Частота кадров : 25,000 кадров/сек
Частота кадров в оригинале : 12,500 кадров/сек
Цветовое пространство : YUV
Субдискретизация насыщенности : 4:2:0
Битовая глубина : 8 бит
Тип развёртки : Прогрессивная
Бит/(Пиксели*Кадры) : 0.172
Размер потока : 3,91 Гбайт (96%)
Язык : English
Дата кодирования : UTC 2013-12-08 09:24:50
Дата пометки : UTC 2013-12-08 09:24:50
Аудио
Идентификатор : 1
Формат : AAC
Формат/Информация : Advanced Audio Codec
Профиль формата : LC
Идентификатор кодека : 40
Продолжительность : 1 ч. 2 м.
Вид битрейта : Постоянный
Битрейт : 384 Кбит/сек
Номинальный битрейт : 128 Кбит/сек
Каналы : 2 канала
Расположение каналов : Front: L R
Частота : 48,0 КГц
Метод сжатия : С потерями
Размер потока : 171 Мбайт (4%)
Язык : English
Дата кодирования : UTC 2013-12-08 09:24:50
Дата пометки : UTC 2013-12-08 09:24:50
Any questions - support@pro-jazz.com.
Есть вопросы - support@pro-jazz.com
74
Нет комментариев. Ваш будет первым!