Поиск

1961 Quincy Jones - Jazz Legends: Birth Of The Band (2016) [SD]

1961 Quincy Jones - Jazz Legends: Birth Of The Band (2016) [SD]
Стиль:
Дата проведения концерта (записи):
1961
Дата издания диска (записи):
2016
Качество:
SATRip
Контейнер:
TS
Состав:
  • Quincy Jones
  • Benny Bailey
  • Clark Terry
  • Leonard Johnson
  • Floyd Standifer - trumpets
  • Jimmy Cleveland
  • Quentin Jackson
  • Melba Liston
  • Ake Persson - trombones
  • Julius Watkins - french horn
  • Phil Woods
  • Porter Kilbert - alto sax
  • Budd Johnson - tenor sax
  • Jerome Richardson - tenor sax, piccolo
  • Sahib Shihab - baritone sax
  • Patti Brown - piano
  • Les Spann- guitar / flute
  • Buddy Catlett - bass
  • Joe Harris - drums
Треклист:

01. "Birth Of A Band"
02. "Moanin’"
03. "Lester Leaps"
04. "In the Gypsy"
05. "Tickle Toe"
06. "Everybody's Blues"
07. "Big Red"

Видео:
MPEG-TS, 704*576 (4:3), 1082kbps, 25fps
Аудио#1:
MPEG2, 256kbps, 48kHz, 2ch
Источник:
собственная запись
Отчёт DVDInfo/MediaInfo/BDInfo
Общее
Идентификатор : 1 (0x1)
Полное имя : \\Quincy Jones\1961 Quincy Jones - Jazz Legends (2016)\1961 Quincy Jones - Jazz Legends Birth Of The Band (2016).ts
Формат : MPEG-TS
Размер файла : 246 Мбайт
Продолжительность : 24 м. 22 с.
Режим общего битрейта : Переменный
Общий поток : 1410 Кбит/сек

Видео
Идентификатор : 226 (0xE2)
Идентификатор меню : 19126 (0x4AB6)
Формат : AVC
Формат/Информация : Advanced Video Codec
Профиль формата : High@L3
Настройки формата : CABAC / 4 Ref Frames
Параметр CABAC формата : Да
Параметр RefFrames формата : 4 кадра
Идентификатор кодека : 27
Продолжительность : 24 м. 22 с.
Битрейт : 1082 Кбит/сек
Ширина : 704 пикселя
Высота : 576 пикселей
Соотношение сторон : 16:9
Частота кадров : 25,000 кадров/сек
Стандарт вещания : Component
Цветовое пространство : YUV
Субдискретизация насыщенности : 4:2:0
Битовая глубина : 8 бит
Тип развёртки : Чересстрочная
Метод сохранения типа развёртки : Раздельные поля
Порядок развёртки : Верхнее поле первое
Бит/(Пиксели*Кадры) : 0.107
Размер потока : 189 Мбайт (77%)
Цветовой диапазон : Limited
Основные цвета : BT.601 PAL
Характеристики трансфера : BT.470 System B/G
Коэффициенты матрицы : BT.470 System B/G

Аудио
Идентификатор : 326 (0x146)
Идентификатор меню : 19126 (0x4AB6)
Формат : MPEG Audio
Версия формата : Version 1
Профиль формата : Layer 2
Идентификатор кодека : 3
Продолжительность : 24 м. 22 с.
Вид битрейта : Постоянный
Битрейт : 256 Кбит/сек
Каналы : 2 канала
Частота : 48,0 КГц
Частота кадров : 41,667 кадра/сек (1152 SPF)
Метод сжатия : С потерями
Размер потока : 44,6 Мбайт (18%)
Язык : French
Download available for power users only.
665
Нет комментариев. Ваш будет первым!