Поиск

1959 Count Basie - Jazz Legends At Palais des Beaux-Arts, Charleroi (2016) [SD]

1959 Count Basie - Jazz Legends At Palais des Beaux-Arts, Charleroi (2016) [SD]
Стиль:
Дата проведения концерта (записи):
1 марта 1959
Место проведения:
Palais des Beaux-Arts, Charleroi, Belgium
Время звучания:
00:50:27
Главы (разбивка по трекам):
нет
Качество:
SATRip
Контейнер:
MP4
Состав:
Треклист:

01. Who, Me? (Snooky Young)
02. The Midgets (Joe Newman)
03. Gee Baby, Ain't I Good To You? (Andy Razaf, Don Redman)
04. Hallelujah I Love her so (Ray Charles)
05. Lil' darlin' (Neal Hefti)
06. How high the moon
07. H.R.H.
08. A Pack of Bones
09. Blues in Frankie's Flat
10. Whirly Bird
11. Midnight Sun Never Sets
12. Old Man River

Видео:
MPEG-4, 720*480p (16:9), 619kbps, 29,970fps
Аудио#1:
AAC LC, 128kbps, 44.1kHz, 2ch
Источник:
собственная запись
Описание:

Дополнительная информация:

Filmed by RTBF, directed by Serge Leroy.

Отчёт DVDInfo/MediaInfo/BDInfo
Общее
Полное имя : \Count Basie\1959 Count Basie - Live at Palais des Beaux-Arts, Charleroi (2016) [SD].mp4
Формат : MPEG-4
Профиль формата : Base Media
Идентификатор кодека : isom (isom/iso2/avc1/mp41)
Размер файла : 272 Мбайт
Продолжительность : 50 м. 24 с.
Общий поток : 754 Кбит/сек
Название фильма : Live at Palais des Beaux-Arts, Charleroi 1959
Альбом : Live at Palais des Beaux-Arts, Charleroi 1959
Альбом/Исполнитель : Count Basie
Исполнитель : Count Basie
Жанр : Swing, Big Band
Дата записи : 2016
Программа кодирования : Lavf58.39.101
Примечание : pro-jazz.com

Видео
Идентификатор : 1
Формат : AVC
Формат/Информация : Advanced Video Codec
Профиль формата : Main@L3
Настройки формата : CABAC / 3 Ref Frames
Параметр CABAC формата : Да
Параметр RefFrames формата : 3 кадра
Идентификатор кодека : avc1
Идентификатор кодека/Информация : Advanced Video Coding
Продолжительность : 50 м. 24 с.
Битрейт : 619 Кбит/сек
Ширина : 720 пикселей
Высота : 480 пикселей
Соотношение сторон : 3:2
Режим частоты кадров : Постоянный
Частота кадров : 29,970 (30000/1001) кадров/сек
Стандарт вещания : NTSC
Цветовое пространство : YUV
Субдискретизация насыщенности : 4:2:0
Битовая глубина : 8 бит
Тип развёртки : Прогрессивная
Бит/(Пиксели*Кадры) : 0.060
Размер потока : 223 Мбайт (82%)
Заголовок : ISO Media file produced by Google Inc.
Цветовой диапазон : Limited
Основные цвета : BT.709
Характеристики трансфера : BT.709
Коэффициенты матрицы : BT.709
Codec configuration box : avcC

Аудио
Идентификатор : 2
Формат : AAC LC
Формат/Информация : Advanced Audio Codec Low Complexity
Идентификатор кодека : mp4a-40-2
Продолжительность : 50 м. 24 с.
Вид битрейта : Постоянный
Битрейт : 128 Кбит/сек
Каналы : 2 канала
Channel layout : L R
Частота : 44,1 КГц
Частота кадров : 43,066 кадра/сек (1024 SPF)
Метод сжатия : С потерями
Размер потока : 46,1 Мбайт (17%)
Заголовок : ISO Media file produced by Google Inc.
Default : Да
Alternate group : 1
Download available for power users only.
708
19:25
Обновил на более качественную версию