Поиск

(World Music, North African, Instructional) [CD] Bilal Abdurahman - African Musical Instruments 1980 - 2009, FLAC (tracks+.cue), lossless

(World Music, North African, Instructional) [CD] Bilal Abdurahman - African Musical Instruments 1980 - 2009, FLAC (tracks+.cue), lossless
Bilal Abdurahman / African Musical Instruments
Жанр: World Music, North African, Instructional
Носитель: CD
Год издания: 2009
Издатель (лейбл): Smithsonian Folkways Records
Страна: USA
Аудиокодек: FLAC (*.flac)
Тип рипа: tracks+.cue
Битрейт аудио: lossless
Продолжительность: 00:43:34
Источник (релизер): jva9031
Наличие сканов в содержимом раздачи: нет (только найденные в сети)
Треклист:
1. Zummarra (double reed oboe) (1:56)
2. Darabuka (hand drum) (0:59)
3. Tambourine Dance (1:10)
4. Clapping (varied rhythms) (1:07)
5. Greek Holiday (clarinet, darabuka, tambourine) (5:49)
6. Sounds of an African Countryside (1:22)
7. Ethiopian Masanka (one string violin) (1:11)
8. Mbutu, Mbira (sansa) (0:23)
9. Mbutu, Mbira (sansa, bells, drums) (1:53)
10. Shakery Rhythms (0:57)
11. Underarm Talking Drum (0:28)
12. Talking Drum with Accompaniment (1:13)
13. 3 Types of Drums (a demonstration) (4:55)
14. Dahomey Drum - Interludes (5:17)
15. Zylophone and Drum (3:32)
16. Zylophone Melodic Rhythms (6:57)
17. Saxophone (Jazz motifs and moods) (4:18)
 
Лог создания рипа
Exact Audio Copy V0.99 prebeta 5 from 4. May 2009
EAC extraction logfile from 2. September 2011, 13:43
Bilal Abdurahman / African Musical Instruments
Used drive : SAMSUNG CD-R/RW SW-252B Adapter: 3 ID: 1
Read mode : Secure
Utilize accurate stream : Yes
Defeat audio cache : Yes
Make use of C2 pointers : No
Read offset correction : 97
Overread into Lead-In and Lead-Out : No
Fill up missing offset samples with silence : Yes
Delete leading and trailing silent blocks : No
Null samples used in CRC calculations : Yes
Used interface : Installed external ASPI interface
Gap handling : Appended to previous track
Used output format : User Defined Encoder
Selected bitrate : 1024 kBit/s
Quality : High
Add ID3 tag : No
Command line compressor : C:\Program Files\Exact Audio Copy\Flac\flac.exe
Additional command line options : -8 -V -T "ARTIST=%a" -T "TITLE=%t" -T "ALBUM=%g" -T "DATE=%y" -T "TRACKNUMBER=%n" -T "GENRE=%m" -T "COMMENT=EAC FLAC -8" %s
TOC of the extracted CD
Track | Start | Length | Start sector | End sector
---------------------------------------------------------
1 | 0:00.00 | 1:56.11 | 0 | 8710
2 | 1:56.11 | 0:58.41 | 8711 | 13101
3 | 2:54.52 | 1:10.42 | 13102 | 18393
4 | 4:05.19 | 1:07.41 | 18394 | 23459
5 | 5:12.60 | 5:49.12 | 23460 | 49646
6 | 11:01.72 | 1:22.33 | 49647 | 55829
7 | 12:24.30 | 1:11.08 | 55830 | 61162
8 | 13:35.38 | 0:22.62 | 61163 | 62874
9 | 13:58.25 | 1:53.49 | 62875 | 71398
10 | 15:51.74 | 0:57.21 | 71399 | 75694
11 | 16:49.20 | 0:28.26 | 75695 | 77820
12 | 17:17.46 | 1:13.34 | 77821 | 83329
13 | 18:31.05 | 4:55.59 | 83330 | 105513
14 | 23:26.64 | 5:17.70 | 105514 | 129358
15 | 28:44.59 | 3:32.52 | 129359 | 145310
16 | 32:17.36 | 6:57.56 | 145311 | 176641
17 | 39:15.17 | 4:18.49 | 176642 | 196040
18 | 46:05.66 | 0:29.34 | 207441 | 209649
Track 1
Filename D:\Bilal Abdurahman - African Musical Instruments\01 - Zummarra (double reed oboe).wav
Pre-gap length 0:00:02.00
Peak level 69.8 %
Track quality 100.0 %
Test CRC 021249C5
Copy CRC 021249C5
Track not present in AccurateRip database
Copy OK
Track 2
Filename D:\Bilal Abdurahman - African Musical Instruments\02 - Darabuka (hand drum).wav
Pre-gap length 0:00:00.02
Peak level 75.1 %
Track quality 100.0 %
Test CRC 641FAA52
Copy CRC 641FAA52
Track not present in AccurateRip database
Copy OK
Track 3
Filename D:\Bilal Abdurahman - African Musical Instruments\03 - Tambourine Dance.wav
Pre-gap length 0:00:00.02
Peak level 80.7 %
Track quality 100.0 %
Test CRC 78C65FC5
Copy CRC 78C65FC5
Track not present in AccurateRip database
Copy OK
Track 4
Filename D:\Bilal Abdurahman - African Musical Instruments\04 - Clapping (varied rhythms).wav
Pre-gap length 0:00:00.02
Peak level 78.4 %
Track quality 100.0 %
Test CRC D5DE9A16
Copy CRC D5DE9A16
Track not present in AccurateRip database
Copy OK
Track 5
Filename D:\Bilal Abdurahman - African Musical Instruments\05 - Greek Holiday (clarinet, darabuka, tambourine).wav
Pre-gap length 0:00:00.02
Peak level 74.1 %
Track quality 100.0 %
Test CRC 63A7008F
Copy CRC 63A7008F
Track not present in AccurateRip database
Copy OK
Track 6
Filename D:\Bilal Abdurahman - African Musical Instruments\06 - Sounds Of An African Countryside.wav
Pre-gap length 0:00:00.02
Peak level 79.5 %
Track quality 100.0 %
Test CRC 7B5BC462
Copy CRC 7B5BC462
Track not present in AccurateRip database
Copy OK
Track 7
Filename D:\Bilal Abdurahman - African Musical Instruments\07 - Ethiopian Masanka (one string violin).wav
Pre-gap length 0:00:00.02
Peak level 59.2 %
Track quality 100.0 %
Test CRC EEAEDFAB
Copy CRC EEAEDFAB
Track not present in AccurateRip database
Copy OK
Track 8
Filename D:\Bilal Abdurahman - African Musical Instruments\08 - Mbutu, Mbira (sansa).wav
Pre-gap length 0:00:00.02
Peak level 63.2 %
Track quality 100.0 %
Test CRC 0CC0E7C7
Copy CRC 0CC0E7C7
Track not present in AccurateRip database
Copy OK
Track 9
Filename D:\Bilal Abdurahman - African Musical Instruments\09 - Mbutu, Mbira (sansa, bells, drums).wav
Pre-gap length 0:00:00.02
Peak level 71.4 %
Track quality 100.0 %
Test CRC 822B3599
Copy CRC 822B3599
Track not present in AccurateRip database
Copy OK
Track 10
Filename D:\Bilal Abdurahman - African Musical Instruments\10 - Shakery Rhythms.wav
Pre-gap length 0:00:00.02
Peak level 72.5 %
Track quality 100.0 %
Test CRC D132FE78
Copy CRC D132FE78
Track not present in AccurateRip database
Copy OK
Track 11
Filename D:\Bilal Abdurahman - African Musical Instruments\11 - Underarm talking drum.wav
Pre-gap length 0:00:00.02
Peak level 70.8 %
Track quality 100.0 %
Test CRC 7B21EF6F
Copy CRC 7B21EF6F
Track not present in AccurateRip database
Copy OK
Track 12
Filename D:\Bilal Abdurahman - African Musical Instruments\12 - Talking Drum with Accompaniment.wav
Pre-gap length 0:00:00.02
Peak level 86.1 %
Track quality 100.0 %
Test CRC 81890902
Copy CRC 81890902
Track not present in AccurateRip database
Copy OK
Track 13
Filename D:\Bilal Abdurahman - African Musical Instruments\13 - 3 Types of Drums (a demonstration).wav
Pre-gap length 0:00:00.02
Peak level 85.3 %
Track quality 100.0 %
Test CRC 64723AB8
Copy CRC 64723AB8
Track not present in AccurateRip database
Copy OK
Track 14
Filename D:\Bilal Abdurahman - African Musical Instruments\14 - Dahomey Drum, Interludes.wav
Pre-gap length 0:00:00.02
Peak level 89.0 %
Track quality 100.0 %
Test CRC 8FDE6608
Copy CRC 8FDE6608
Track not present in AccurateRip database
Copy OK
Track 15
Filename D:\Bilal Abdurahman - African Musical Instruments\15 - Zylophone and Drum.wav
Pre-gap length 0:00:00.02
Peak level 86.0 %
Track quality 100.0 %
Test CRC B7D1BBBD
Copy CRC B7D1BBBD
Track not present in AccurateRip database
Copy OK
Track 16
Filename D:\Bilal Abdurahman - African Musical Instruments\16 - Zylophone Melodic Rhythms.wav
Pre-gap length 0:00:00.02
Peak level 77.1 %
Track quality 99.9 %
Test CRC D3543B46
Copy CRC D3543B46
Track not present in AccurateRip database
Copy OK
Track 17
Filename D:\Bilal Abdurahman - African Musical Instruments\17 - Saxophone (Jazz motifs and moods).wav
Pre-gap length 0:00:00.02
Peak level 71.1 %
Track quality 99.9 %
Test CRC 20AF3DF6
Copy CRC 20AF3DF6
Track not present in AccurateRip database
Copy OK
None of the tracks are present in the AccurateRip database
No errors occurred
End of status report
 
Содержание индексной карты (.CUE)
REM GENRE Ethnic
REM DATE 2009
REM DISCID EC0AEB12
REM COMMENT "ExactAudioCopy v0.99pb5"
FILE "01 - Zummarra (double reed oboe).wav" WAVE
TRACK 01 AUDIO
INDEX 01 00:00:00
TRACK 02 AUDIO
INDEX 00 01:56:09
FILE "02 - Darabuka (hand drum).wav" WAVE
INDEX 01 00:00:00
TRACK 03 AUDIO
INDEX 00 00:58:39
FILE "03 - Tambourine Dance.wav" WAVE
INDEX 01 00:00:00
TRACK 04 AUDIO
INDEX 00 01:10:40
FILE "04 - Clapping (varied rhythms).wav" WAVE
INDEX 01 00:00:00
TRACK 05 AUDIO
INDEX 00 01:07:39
FILE "05 - Greek Holiday (clarinet, darabuka, tambourine).wav" WAVE
INDEX 01 00:00:00
TRACK 06 AUDIO
INDEX 00 05:49:10
FILE "06 - Sounds Of An African Countryside.wav" WAVE
INDEX 01 00:00:00
TRACK 07 AUDIO
INDEX 00 01:22:31
FILE "07 - Ethiopian Masanka (one string violin).wav" WAVE
INDEX 01 00:00:00
TRACK 08 AUDIO
INDEX 00 01:11:06
FILE "08 - Mbutu, Mbira (sansa).wav" WAVE
INDEX 01 00:00:00
TRACK 09 AUDIO
INDEX 00 00:22:60
FILE "09 - Mbutu, Mbira (sansa, bells, drums).wav" WAVE
INDEX 01 00:00:00
TRACK 10 AUDIO
INDEX 00 01:53:47
FILE "10 - Shakery Rhythms.wav" WAVE
INDEX 01 00:00:00
TRACK 11 AUDIO
INDEX 00 00:57:19
FILE "11 - Underarm talking drum.wav" WAVE
INDEX 01 00:00:00
TRACK 12 AUDIO
INDEX 00 00:28:24
FILE "12 - Talking Drum with Accompaniment.wav" WAVE
INDEX 01 00:00:00
TRACK 13 AUDIO
INDEX 00 01:13:32
FILE "13 - 3 Types of Drums (a demonstration).wav" WAVE
INDEX 01 00:00:00
TRACK 14 AUDIO
INDEX 00 04:55:57
FILE "14 - Dahomey Drum, Interludes.wav" WAVE
INDEX 01 00:00:00
TRACK 15 AUDIO
INDEX 00 05:17:68
FILE "15 - Zylophone and Drum.wav" WAVE
INDEX 01 00:00:00
TRACK 16 AUDIO
INDEX 00 03:32:50
FILE "16 - Zylophone Melodic Rhythms.wav" WAVE
INDEX 01 00:00:00
TRACK 17 AUDIO
INDEX 00 06:57:54
FILE "17 - Saxophone (Jazz motifs and moods).wav" WAVE
INDEX 01 00:00:00
TRACK 18 MODEx/2xxx
INDEX 00 04:18:49
 
Об альбоме (сборнике)
This 1980 release introduces classrooms to the instruments, rhythms, and sounds of Africa. With the zummarra (double-reed oboe), darabuka (hand drum), and masanka (one-string viol), listeners will get a feel for the music from three different regions of the African continent: the Islamic-influenced north, West Africa, and sub-Saharan Africa. The liner notes include a detailed sample lesson plan and suggested activities to further engage students with the music. folkways
 
Состав
Bilal Abdurahman with Rahkiah Abdurahman, Ayyub Abdullah
15:35
331
Нет комментариев. Ваш будет первым!