Поиск

(Afro-Cuban Jazz, Salsa) [CD] Manny Oquendo & Libre - On the Move! (Muevete) - 1996, FLAC (image+.cue), lossless

(Afro-Cuban Jazz, Salsa) [CD] Manny Oquendo & Libre - On the Move! (Muevete) - 1996, FLAC (image+.cue), lossless
Треклист:
Manny Oquendo & Libre - On the Move! (Muevete)
Жанр: Afro-Cuban Jazz, Salsa
Носитель: CD
Страна-производитель диска: США
Год издания: 1996
Издатель (лейбл): Milestone
Номер по каталогу: MCD-9263-2
Аудиокодек: FLAC (*.flac)
Тип рипа: image+.cue
Битрейт аудио: lossless
Продолжительность: 70:22
Источник (релизер): dreadbull (hqshare)
Наличие сканов в содержимом раздачи: да
Треклист:
01. Chaquilla Ideal [montuno] /Oquendo/ 9:43
02. Lester Leaps In [mambo jazz] /Lester Young/ 9:44
03. Oquendo y Libre [descarga] /Oquendo/ 8:09
04. Piel Canela [cha-cha-chá] /Bobby Capó/ 7:07
05. No Cuentes [guaracha-rumba] /Oquendo, Aguabella/ 8:58
06. Medley (17:20):
Porqué Tú‚ Sufres /Chano Pozo/ 5:05
No Critiques /Pedro Hernández/ 3:57
Vengo Sabroso /Gregorio Montecino/ 7:59
07. Muevete un Poco [salsa jam] /Oquendo/ 9:01
 
Лог создания рипа
Exact Audio Copy V1.0 beta 3 from 29. August 2011
EAC extraction logfile from 30. April 2014, 18:30
Manny Oquendo & Libre / On the move �muevete!
Used drive : ASUS DRW-22B2L Adapter: 0 ID: 0
Read mode : Secure
Utilize accurate stream : Yes
Defeat audio cache : Yes
Make use of C2 pointers : No
Read offset correction : 6
Overread into Lead-In and Lead-Out : No
Fill up missing offset samples with silence : Yes
Delete leading and trailing silent blocks : No
Null samples used in CRC calculations : Yes
Used interface : Native Win32 interface for Win NT & 2000
Used output format : User Defined Encoder
Selected bitrate : 128 kBit/s
Quality : High
Add ID3 tag : Yes
Command line compressor : C:\Program Files (x86)\FLAC\flac.exe
Additional command line options : -8 -V -T "ARTIST=%artist%" -T "TITLE=%title%" -T "ALBUM=%albumtitle%" -T "DATE=%year%" -T "TRACKNUMBER=%tracknr%" -T "GENRE=%genre%" -T "PERFORMER=%albuminterpret%" -T "COMPOSER=%composer%" %haslyrics%--tag-from-file=LYRICS="%lyricsfile%"%haslyrics% -T "ALBUMARTIST=%albumartist%" -T "DISCNUMBER=%cdnumber%" -T "TOTALDISCS=%totalcds%" -T "TOTALTRACKS=%numtracks%" -T "COMMENT=%comment%" %source% -o %dest%
TOC of the extracted CD
Track | Start | Length | Start sector | End sector
---------------------------------------------------------
1 | 0:00.00 | 9:46.37 | 0 | 43986
2 | 9:46.37 | 9:46.73 | 43987 | 88009
3 | 19:33.35 | 8:12.45 | 88010 | 124954
4 | 27:46.05 | 7:09.57 | 124955 | 157186
5 | 34:55.62 | 9:01.10 | 157187 | 197771
6 | 43:56.72 | 17:23.38 | 197772 | 276034
7 | 61:20.35 | 9:01.45 | 276035 | 316654
Range status and errors
Selected range
Filename H:\Donkey Files\Manny Oquendo - On the Move (1996, Milestone) [eac-flac-scans] byDrBull\Manny Oquendo y Libre - On the move.wav
Peak level 100.0 %
Extraction speed 6.4 X
Range quality 99.9 %
Test CRC 80A76C2D
Copy CRC 80A76C2D
Copy OK
No errors occurred
AccurateRip summary
Track 1 accurately ripped (confidence 1) [F2862F98] (AR v2)
Track 2 accurately ripped (confidence 1) [7E62128C] (AR v2)
Track 3 accurately ripped (confidence 1) [CA0B367B] (AR v2)
Track 4 accurately ripped (confidence 1) [D39D8F0D] (AR v2)
Track 5 accurately ripped (confidence 1) [5F914D39] (AR v2)
Track 6 accurately ripped (confidence 1) [5C5B1CF2] (AR v2)
Track 7 accurately ripped (confidence 1) [1A1B7FEB] (AR v2)
All tracks accurately ripped
End of status report
 
Содержание индексной карты (.CUE)
REM GENRE Jazz
REM DATE 1996
REM DISCID 72107E07
REM COMMENT "ExactAudioCopy v1.0b3"
PERFORMER "Manny Oquendo & Libre"
TITLE "On the Move"
FILE "Manny Oquendo & Libre - On the Move.wav" WAVE
TRACK 01 AUDIO
TITLE "Chaquilla Ideal (Montuno)"
PERFORMER "Manny Oquendo & Libre"
INDEX 01 00:00:00
TRACK 02 AUDIO
TITLE "Lester Leaps In (Mambo Jazz)"
PERFORMER "Manny Oquendo & Libre"
INDEX 00 09:44:10
INDEX 01 09:46:37
TRACK 03 AUDIO
TITLE "Oquendo y Libre (Descarga)"
PERFORMER "Manny Oquendo & Libre"
INDEX 00 19:30:54
INDEX 01 19:33:35
TRACK 04 AUDIO
TITLE "Piel Canela (Cha-Cha)"
PERFORMER "Manny Oquendo & Libre"
INDEX 00 27:43:70
INDEX 01 27:46:05
TRACK 05 AUDIO
TITLE "No Cuentes (Guaracha Rumba)"
PERFORMER "Manny Oquendo & Libre"
INDEX 00 34:53:32
INDEX 01 34:55:62
TRACK 06 AUDIO
TITLE "Medley: Porque Tu Sufres/No Critiques/Vengo Sabroso"
PERFORMER "Manny Oquendo & Libre"
INDEX 00 43:54:65
INDEX 01 43:56:72
TRACK 07 AUDIO
TITLE "Muevete un Poco (Salsa Jam)"
PERFORMER "Manny Oquendo & Libre"
INDEX 00 61:18:25
INDEX 01 61:20:35
 
Отчет CUETools
[CUETools log; Date: 31.05.2014 17:01:14; Version: 2.1.4]
[CTDB TOCID: 7N2JH7EgRtIH7vai9s42CQ6bDvA-] found.
Track | CTDB Status
1 | (2/2) Accurately ripped
2 | (2/2) Accurately ripped
3 | (2/2) Accurately ripped
4 | (2/2) Accurately ripped
5 | (2/2) Accurately ripped
6 | (2/2) Accurately ripped
7 | (2/2) Accurately ripped
[AccurateRip ID: 00126179-006f3c15-72107e07] found.
Track [ CRC | V2 ] Status
01 [47c0568f|f2862f98] (1+1/2) Accurately ripped
02 [a267cd3d|7e62128c] (1+1/2) Accurately ripped
03 [9cf51623|ca0b367b] (1+1/2) Accurately ripped
04 [7c874bae|d39d8f0d] (1+1/2) Accurately ripped
05 [9d111652|5f914d39] (1+1/2) Accurately ripped
06 [c20ea30d|5c5b1cf2] (1+1/2) Accurately ripped
07 [c8277f2e|1a1b7feb] (1+1/2) Accurately ripped
Track Peak [ CRC32 ] [W/O NULL] [ LOG ]
-- 100,0 [80A76C2D] [E25B2E88] CRC32
01 100,0 [B8A4C0DB] [021C42AB]
02 100,0 [7F710E95] [6924D08E]
03 100,0 [C842875D] [AF75F698]
04 100,0 [FC5D3D06] [8B670880]
05 100,0 [5A87058F] [BB968CE3]
06 100,0 [B4E4E13E] [9173CB8D]
07 100,0 [8A8B7C65] [72D9A17C]
 
Review by Alex Henderson
The strong and powerful influence of African music is hard to miss on this CD, which illustrates the rich cultural heritage of blacks in Bahia and Northeastern Brazil (a region that has produced many musical greats). Legends like Tito Puente, Tito Rodriguez, and Machito were on the scene, so aspiring young salseros assumed they had no choice but to give 200 percent. The percussionist and his longtime partner Andy Gonzales bring that unwavering work ethic to On the Move! (¡Muevete!), an outstanding live date recorded at Bimbo's 365 Club in San Francisco. When a 65-year-old Oquendo and his band Libre tear into Bobby Capo's familiar cha-cha "Piel Canela" and infectious originals like "No Cuentes," "Chaquilla Ideal," "Oquendo Y Libre" (a celebration of New York's salsa scene), and the descarga (Afro-Cuban jam) "Muevete un Poco," it's clear that a genuine master of salsa is very hard at work. Though salsa dominates this set, Oquendo triumphantly switches to Latin jazz for an engaging version of the Lester Young standard "Lester Leaps In."
 
Состав
Manny Oquendo - leader, timbales, bongós;
Andy González - musical director, bass;
Willie Rodríguez - piano, lead vocals (#4);
Roberto Carrero - congas;
Dan Reagan - lead trombone;
Angel "Papo" Vázquez - trombone;
Leonard Pollara - trombone;
Wayne Wallace - trombone;
Hermán Olivera, Frankie Vázquez - lead vocals.
Rec. live at Bimbo's 365 Club, San Francisco, CA on May 24, 1996.
15:35
275
Нет комментариев. Ваш будет первым!