Поиск

(World, Latin Jazz, Pop-Jazz) Pink Martini - A Retrospective - 2011, FLAC (tracks+.cue), lossless

(World, Latin Jazz, Pop-Jazz) Pink Martini - A Retrospective - 2011, FLAC (tracks+.cue), lossless
Треклист:
Pink Martini / A Retrospective
Жанр: World, Latin Jazz, Pop-Jazz
Год издания диска: 2011
Аудиокодек: FLAC (*.flac)
Тип рипа: tracks+.cue
Битрейт аудио: lossless
Продолжительность: 1:12:14
Источник (релизер): mudvslug
Наличие сканов в содержимом раздачи: нет
Треклист:
01. Una Notte A Napoli (First Recording) (2:27)
02. Hang On Little Tomato (3:18)
03. Donde Estas Yolanda? (China Forbes Vocals Version) (3:26)
04. Hey Eugene (3:09)
05. La Soledad (5:38)
06. Splendor In the Grass (3:38)
07. Kikuchiyo To Mohshimasu (The Hiroshi Wada Mix) (4:32)
08. Anna (El Negro Zumbon) (2:38)
09. Ma Solitude (feat. Georges Moustaki) (3:27)
10. Mas Que Nada (feat. Saori Yuki) (2:36)
11. Sympathique (2:48)
12. Lilly (2:44)
13. How Long Will It Last? (feat. Michael Feinstein) (4:06)
14. Tuca Tuca (2:49)
15. Que Sera Sera (4:11)
16. Moon River (feat. Gus Van Sant) (1:25)
17. Amado Mio (4:48)
18. The Man With the Big Sombrero (1:33)
19. Aspettami (First Recording) (2:50)
20. Auld Lang Syne (3:21)
21. Una Notta A Napoli (DJ Johnny Dynell Remix) (6:51)
* выделены ранее не публиковавшиеся треки/версии треков
 
EAC log
Exact Audio Copy V1.0 beta 2 from 29. April 2011
EAC extraction logfile from 19. October 2011, 19:46
Pink Martini / A Retrospective
Used drive : Optiarc DVD RW AD-7590A Adapter: 1 ID: 0
Read mode : Secure
Utilize accurate stream : Yes
Defeat audio cache : Yes
Make use of C2 pointers : No
Read offset correction : 48
Overread into Lead-In and Lead-Out : No
Fill up missing offset samples with silence : Yes
Delete leading and trailing silent blocks : No
Null samples used in CRC calculations : Yes
Used interface : Native Win32 interface for Win NT & 2000
Gap handling : Appended to previous track
Used output format : User Defined Encoder
Selected bitrate : 1024 kBit/s
Quality : High
Add ID3 tag : No
Command line compressor : C:\Program Files (x86)\Exact Audio Copy\Flac\flac.exe
Additional command line options : -8 -V -T "ARTIST=%artist%" -T "TITLE=%title%" -T "ALBUM=%albumtitle%" -T "DATE=%year%" -T "TRACKNUMBER=%tracknr%" -T "GENRE=%genre%" -T "PERFORMER=%albuminterpret%" -T "COMPOSER=%composer%" %haslyrics%--tag-from-file=LYRICS
TOC of the extracted CD
Track | Start | Length | Start sector | End sector
---------------------------------------------------------
1 | 0:00.00 | 2:26.49 | 0 | 10998
2 | 2:26.49 | 3:17.68 | 10999 | 25841
3 | 5:44.42 | 3:25.71 | 25842 | 41287
4 | 9:10.38 | 3:09.14 | 41288 | 55476
5 | 12:19.52 | 5:38.09 | 55477 | 80835
6 | 17:57.61 | 3:37.49 | 80836 | 97159
7 | 21:35.35 | 4:32.06 | 97160 | 117565
8 | 26:07.41 | 2:37.67 | 117566 | 129407
9 | 28:45.33 | 3:27.16 | 129408 | 144948
10 | 32:12.49 | 2:35.61 | 144949 | 156634
11 | 34:48.35 | 2:47.46 | 156635 | 169205
12 | 37:36.06 | 2:44.00 | 169206 | 181505
13 | 40:20.06 | 4:06.37 | 181506 | 199992
14 | 44:26.43 | 2:49.17 | 199993 | 212684
15 | 47:15.60 | 4:10.67 | 212685 | 231501
16 | 51:26.52 | 1:24.46 | 231502 | 237847
17 | 52:51.23 | 4:47.60 | 237848 | 259432
18 | 57:39.08 | 1:32.57 | 259433 | 266389
19 | 59:11.65 | 2:50.21 | 266390 | 279160
20 | 62:02.11 | 3:21.04 | 279161 | 294239
21 | 65:23.15 | 6:50.48 | 294240 | 325037
Track 1
Filename C:\EAC rips\Pink Martini - A Retrospective (2011) - FLAC\01 - Una Notte A Napoli (First Recording).wav
Pre-gap length 0:00:02.00
Peak level 100.0 %
Extraction speed 1.0 X
Track quality 100.0 %
Test CRC 7CF5347D
Copy CRC 7CF5347D
Track not present in AccurateRip database
Copy OK
Track 2
Filename C:\EAC rips\Pink Martini - A Retrospective (2011) - FLAC\02 - Hang On Little Tomato.wav
Pre-gap length 0:00:01.26
Peak level 98.8 %
Extraction speed 1.2 X
Track quality 100.0 %
Test CRC B02B5643
Copy CRC B02B5643
Track not present in AccurateRip database
Copy OK
Track 3
Filename C:\EAC rips\Pink Martini - A Retrospective (2011) - FLAC\03 - Donde Estas Yolanda (China Forbes Vocals Version).wav
Pre-gap length 0:00:02.66
Peak level 100.0 %
Extraction speed 1.3 X
Track quality 100.0 %
Test CRC EA695F8B
Copy CRC EA695F8B
Track not present in AccurateRip database
Copy OK
Track 4
Filename C:\EAC rips\Pink Martini - A Retrospective (2011) - FLAC\04 - Hey Eugene.wav
Pre-gap length 0:00:03.66
Peak level 98.8 %
Extraction speed 1.4 X
Track quality 100.0 %
Test CRC 4C92728C
Copy CRC 4C92728C
Track not present in AccurateRip database
Copy OK
Track 5
Filename C:\EAC rips\Pink Martini - A Retrospective (2011) - FLAC\05 - La Soledad.wav
Pre-gap length 0:00:02.00
Peak level 100.0 %
Extraction speed 1.6 X
Track quality 100.0 %
Test CRC 04366AC8
Copy CRC 04366AC8
Track not present in AccurateRip database
Copy OK
Track 6
Filename C:\EAC rips\Pink Martini - A Retrospective (2011) - FLAC\06 - Splendor In the Grass.wav
Pre-gap length 0:00:00.66
Peak level 99.9 %
Extraction speed 1.6 X
Track quality 100.0 %
Test CRC A96181A1
Copy CRC A96181A1
Track not present in AccurateRip database
Copy OK
Track 7
Filename C:\EAC rips\Pink Martini - A Retrospective (2011) - FLAC\07 - Kikuchiyo To Mohshimasu (The Hiroshi Wada Mix).wav
Pre-gap length 0:00:01.40
Peak level 100.0 %
Extraction speed 1.8 X
Track quality 100.0 %
Test CRC 3A7D5A68
Copy CRC 3A7D5A68
Track not present in AccurateRip database
Copy OK
Track 8
Filename C:\EAC rips\Pink Martini - A Retrospective (2011) - FLAC\08 - Anna (El Negro Zumbon).wav
Pre-gap length 0:00:01.40
Peak level 98.8 %
Extraction speed 1.7 X
Track quality 100.0 %
Test CRC FE6207CB
Copy CRC FE6207CB
Track not present in AccurateRip database
Copy OK
Track 9
Filename C:\EAC rips\Pink Martini - A Retrospective (2011) - FLAC\09 - Ma Solitude (feat. Georges Moustaki).wav
Pre-gap length 0:00:03.26
Peak level 97.4 %
Extraction speed 1.8 X
Track quality 100.0 %
Test CRC 384C27A2
Copy CRC 384C27A2
Track not present in AccurateRip database
Copy OK
Track 10
Filename C:\EAC rips\Pink Martini - A Retrospective (2011) - FLAC\10 - Mas Que Nada (feat. Saori Yuki).wav
Pre-gap length 0:00:01.49
Peak level 100.0 %
Extraction speed 1.8 X
Track quality 100.0 %
Test CRC 94E9BB2A
Copy CRC 94E9BB2A
Track not present in AccurateRip database
Copy OK
Track 11
Filename C:\EAC rips\Pink Martini - A Retrospective (2011) - FLAC\11 - Sympathique.wav
Pre-gap length 0:00:02.00
Peak level 97.6 %
Extraction speed 1.6 X
Track quality 99.9 %
Test CRC F8C38AD1
Copy CRC F8C38AD1
Track not present in AccurateRip database
Copy OK
Track 12
Filename C:\EAC rips\Pink Martini - A Retrospective (2011) - FLAC\12 - Lilly.wav
Pre-gap length 0:00:00.40
Peak level 98.8 %
Extraction speed 1.6 X
Track quality 99.9 %
Test CRC F1D2765C
Copy CRC F1D2765C
Track not present in AccurateRip database
Copy OK
Track 13
Filename C:\EAC rips\Pink Martini - A Retrospective (2011) - FLAC\13 - How Long Will It Last (feat. Michael Feinstein).wav
Pre-gap length 0:00:02.00
Peak level 99.9 %
Extraction speed 2.1 X
Track quality 100.0 %
Test CRC 1B2B41F1
Copy CRC 1B2B41F1
Track not present in AccurateRip database
Copy OK
Track 14
Filename C:\EAC rips\Pink Martini - A Retrospective (2011) - FLAC\14 - Tuca Tuca.wav
Pre-gap length 0:00:01.26
Peak level 94.2 %
Extraction speed 2.0 X
Track quality 100.0 %
Test CRC 86CE46B8
Copy CRC 86CE46B8
Track not present in AccurateRip database
Copy OK
Track 15
Filename C:\EAC rips\Pink Martini - A Retrospective (2011) - FLAC\15 - Que Sera Sera.wav
Pre-gap length 0:00:01.00
Peak level 98.8 %
Extraction speed 2.2 X
Track quality 100.0 %
Test CRC 98975095
Copy CRC 98975095
Track not present in AccurateRip database
Copy OK
Track 16
Filename C:\EAC rips\Pink Martini - A Retrospective (2011) - FLAC\16 - Moon River (feat. Gus Van Sant).wav
Pre-gap length 0:00:00.40
Peak level 100.0 %
Extraction speed 1.7 X
Track quality 100.0 %
Test CRC E124A70C
Copy CRC E124A70C
Track not present in AccurateRip database
Copy OK
Track 17
Filename C:\EAC rips\Pink Martini - A Retrospective (2011) - FLAC\17 - Amado Mio.wav
Pre-gap length 0:00:01.66
Peak level 98.8 %
Extraction speed 2.1 X
Track quality 99.9 %
Test CRC F2A83402
Copy CRC F2A83402
Track not present in AccurateRip database
Copy OK
Track 18
Filename C:\EAC rips\Pink Martini - A Retrospective (2011) - FLAC\18 - The Man With the Big Sombrero.wav
Pre-gap length 0:00:01.40
Peak level 87.3 %
Extraction speed 1.9 X
Track quality 100.0 %
Test CRC 81917C9A
Copy CRC 81917C9A
Track not present in AccurateRip database
Copy OK
Track 19
Filename C:\EAC rips\Pink Martini - A Retrospective (2011) - FLAC\19 - Aspettami (First Recording).wav
Pre-gap length 0:00:03.56
Peak level 95.6 %
Extraction speed 1.9 X
Track quality 99.9 %
Test CRC AF871E63
Copy CRC AF871E63
Track not present in AccurateRip database
Copy OK
Track 20
Filename C:\EAC rips\Pink Martini - A Retrospective (2011) - FLAC\20 - Auld Lang Syne.wav
Pre-gap length 0:00:02.02
Peak level 97.4 %
Extraction speed 2.3 X
Track quality 100.0 %
Test CRC 7BC0004A
Copy CRC 7BC0004A
Track not present in AccurateRip database
Copy OK
Track 21
Filename C:\EAC rips\Pink Martini - A Retrospective (2011) - FLAC\21 - Una Notta A Napoli (DJ Johnny Dynell Remix).wav
Pre-gap length 0:00:02.56
Peak level 98.8 %
Extraction speed 2.6 X
Track quality 100.0 %
Test CRC A4E1C6BB
Copy CRC A4E1C6BB
Track not present in AccurateRip database
Copy OK
None of the tracks are present in the AccurateRip database
No errors occurred
End of status report
==== Log checksum 85E0E2CCF950C86CC12A4834E7250B1861F3DFD6099D3B0EE990851B3A9A17F1 ====
 
auCDtect's log
-----------------------
DON'T MODIFY THIS FILE
-----------------------
PERFORMER: auCDtect Task Manager, ver. 1.5.1RC3 build 1.5.1.4
Copyright (c) 2008-2010 y-soft. All rights reserved
http://y-soft.org
ANALYZER: auCDtect: CD records authenticity detector, version 0.8.2
Copyright (c) 2004 Oleg Berngardt. All rights reserved.
Copyright (c) 2004 Alexander Djourik. All rights reserved.
FILE: 21 - Una Notta A Napoli (DJ Johnny Dynell Remix).flac
Size: 47532736 Hash: B74A98C6D7E28A9F3AC729B6A0169E36 Accuracy: -m0
Conclusion: CDDA 100%
Signature: 4AD45FAF3676072BA6AEE8A2D39283B05DCB8A66
FILE: 20 - Auld Lang Syne.flac
Size: 23585259 Hash: 671BF9BE953DC54CAFD26E60A1358C33 Accuracy: -m0
Conclusion: CDDA 100%
Signature: 77751C1859291B8FB3E687AB909DD550D9B85C31
FILE: 19 - Aspettami (First Recording).flac
Size: 14087890 Hash: 546654F33F1D4372D382AFB06A85A673 Accuracy: -m0
Conclusion: CDDA 100%
Signature: 02B24DB72DADB76C8E6299F7D59DB12E217E9C0D
FILE: 18 - The Man With the Big Sombrero.flac
Size: 7710865 Hash: 6FE4F93E0111296A0ABA20DA68443FE0 Accuracy: -m0
Conclusion: CDDA 100%
Signature: 84D7E28F27A6FC6F223D66DC8B779C6BFD36DE84
FILE: 17 - Amado Mio.flac
Size: 31698007 Hash: 41D8E3CE3A9A86709CE317F9491BCB46 Accuracy: -m0
Conclusion: CDDA 100%
Signature: 281A7B0170E8032CEC3B47C90F39DB933EEA23F0
FILE: 16 - Moon River (feat. Gus Van Sant).flac
Size: 8112537 Hash: EC9BE95970921D2248B8EFCE667C8FE2 Accuracy: -m0
Conclusion: CDDA 100%
Signature: 75C0FF9332B2BDB8A8E9294C439FDDC741D21620
FILE: 15 - Que Sera Sera.flac
Size: 27529306 Hash: D3878D99DCFDC6A25E894C282F836278 Accuracy: -m0
Conclusion: CDDA 100%
Signature: E99D8E9B1D8F9453EE5B2DC54EA032185DE6EE74
FILE: 14 - Tuca Tuca.flac
Size: 17328026 Hash: 3F96C9A8A248919E10E68D9BEBA38D46 Accuracy: -m0
Conclusion: CDDA 100%
Signature: 0AF61800AE98A9FDD3144D237431D952D0907732
FILE: 13 - How Long Will It Last (feat. Michael Feinstein).flac
Size: 26061593 Hash: E80478C4765A1068AD0242FFD9D3A96E Accuracy: -m0
Conclusion: CDDA 100%
Signature: 1143E37C5F331CBF981B97EA795D465718542819
FILE: 12 - Lilly.flac
Size: 17119899 Hash: 84D260020997ED4AA2A23FADAEEE0683 Accuracy: -m0
Conclusion: CDDA 100%
Signature: 671CE4EABF55292F159AE54573C962AC527C2750
FILE: 11 - Sympathique.flac
Size: 15706695 Hash: 5B1B823421F28F2D8D03BFC5A429B239 Accuracy: -m0
Conclusion: CDDA 100%
Signature: A95FCF21432789BC7E81EB5F768D2AE8C84B3594
FILE: 10 - Mas Que Nada (feat. Saori Yuki).flac
Size: 18766794 Hash: B1F22B36490BF6B6ECA37FCE1832392B Accuracy: -m0
Conclusion: CDDA 99%
Signature: 7EECEE2604223295107931FAC6475AF8CF5D4EFD
FILE: 09 - Ma Solitude (feat. Georges Moustaki).flac
Size: 16635412 Hash: 9F36D20A77692545D08F5CFCFFD1C614 Accuracy: -m0
Conclusion: CDDA 100%
Signature: 2C323BC370FCCB1D33F13E404F9B9487229CBBA1
FILE: 08 - Anna (El Negro Zumbon).flac
Size: 19406343 Hash: 85EF200055A174462546A9A2CFB3E71C Accuracy: -m0
Conclusion: CDDA 100%
Signature: C0F96FAE367E872073611CF3FC84911E7ABEC200
FILE: 07 - Kikuchiyo To Mohshimasu (The Hiroshi Wada Mix).flac
Size: 25388091 Hash: 91EF9B389EBAE2CD83BB514E6299DEBA Accuracy: -m0
Conclusion: CDDA 100%
Signature: 501B72DBF9E20F1AE73E15A2BF0EBD2014273BCE
FILE: 06 - Splendor In the Grass.flac
Size: 22846784 Hash: BBE5CBAE87767ED3CFEC9C33607E0A44 Accuracy: -m0
Conclusion: CDDA 99%
Signature: 932CD765C6A4FDAB8293CAA4EA5643691FD99773
FILE: 05 - La Soledad.flac
Size: 31624872 Hash: 56C277BC440B49D3321A8347C46BFE4D Accuracy: -m0
Conclusion: CDDA 99%
Signature: 10B293619828F3D33D761E8F956BDD0A34B5C20B
FILE: 04 - Hey Eugene.flac
Size: 20876246 Hash: 3BAA740066E6282AC9D0349E74C6BD1B Accuracy: -m0
Conclusion: CDDA 100%
Signature: 2127A944DC67288567DD8434133DC53D158FE257
FILE: 03 - Donde Estas Yolanda (China Forbes Vocals Version).flac
Size: 22900913 Hash: 0903916EA60EFAA13F5AA252A466A0E1 Accuracy: -m0
Conclusion: CDDA 100%
Signature: 90F9F4862CE04F38FC76B8FA7A78B2C785A7A502
FILE: 02 - Hang On Little Tomato.flac
Size: 19399914 Hash: E763DDF217CF15DFEFCBCC791B1817E5 Accuracy: -m0
Conclusion: CDDA 100%
Signature: DC5532C112873BD6957A760ECDB12625B8F9E92D
FILE: 01 - Una Notte A Napoli (First Recording).flac
Size: 13288184 Hash: DB0C1B5C07AA00E6F18DA7F2DE2FF41C Accuracy: -m0
Conclusion: CDDA 100%
Signature: A869690E89DB38BF38421C5E588C921BA4C192F5
 
.cue
REM GENRE Pop
REM DATE 2011
REM DISCID 4210ED15
REM COMMENT "ExactAudioCopy v1.0b2"
PERFORMER "Pink Martini"
TITLE "A Retrospective"
FILE "01 - Una Notte A Napoli (First Recording).wav" WAVE
TRACK 01 AUDIO
TITLE "Una Notte A Napoli (First Recording)"
PERFORMER "Pink Martini"
ISRC USHNZ1100099
INDEX 01 00:00:00
TRACK 02 AUDIO
TITLE "Hang On Little Tomato"
PERFORMER "Pink Martini"
ISRC USHNZ0400015
INDEX 00 02:25:29
FILE "02 - Hang On Little Tomato.wav" WAVE
INDEX 01 00:00:00
TRACK 03 AUDIO
TITLE "Donde Estas Yolanda? (China Forbes Vocals Version)"
PERFORMER "Pink Martini"
ISRC USHNZ1100100
INDEX 00 03:15:18
FILE "03 - Donde Estas Yolanda (China Forbes Vocals Version).wav" WAVE
INDEX 01 00:00:00
TRACK 04 AUDIO
TITLE "Hey Eugene"
PERFORMER "Pink Martini"
ISRC USHNZ0700036
INDEX 00 03:22:21
FILE "04 - Hey Eugene.wav" WAVE
INDEX 01 00:00:00
TRACK 05 AUDIO
TITLE "La Soledad"
PERFORMER "Pink Martini"
ISRC USHNZ0400005
INDEX 00 03:07:14
FILE "05 - La Soledad.wav" WAVE
INDEX 01 00:00:00
TRACK 06 AUDIO
TITLE "Splendor In the Grass"
PERFORMER "Pink Martini"
ISRC USHNZ0900072
INDEX 00 05:37:34
FILE "06 - Splendor In the Grass.wav" WAVE
INDEX 01 00:00:00
TRACK 07 AUDIO
TITLE "Kikuchiyo To Mohshimasu (The Hiroshi Wada Mix)"
PERFORMER "Pink Martini"
ISRC USHNZ1100101
INDEX 00 03:36:19
FILE "07 - Kikuchiyo To Mohshimasu (The Hiroshi Wada Mix).wav" WAVE
INDEX 01 00:00:00
TRACK 08 AUDIO
TITLE "Anna (El Negro Zumbon)"
PERFORMER "Pink Martini"
ISRC USHNZ0400014
INDEX 00 04:30:51
FILE "08 - Anna (El Negro Zumbon).wav" WAVE
INDEX 01 00:00:00
TRACK 09 AUDIO
TITLE "Ma Solitude (feat. Georges Moustaki)"
PERFORMER "Pink Martini"
ISRC USHNZ1100102
INDEX 00 02:34:47
FILE "09 - Ma Solitude (feat. Georges Moustaki).wav" WAVE
INDEX 01 00:00:00
TRACK 10 AUDIO
TITLE "Mas Que Nada (feat. Saori Yuki)"
PERFORMER "Pink Martini"
ISRC JPTO01100809
INDEX 00 03:25:54
FILE "10 - Mas Que Nada (feat. Saori Yuki).wav" WAVE
INDEX 01 00:00:00
TRACK 11 AUDIO
TITLE "Sympathique"
PERFORMER "Pink Martini"
ISRC USHNZ0400003
INDEX 00 02:33:61
FILE "11 - Sympathique.wav" WAVE
INDEX 01 00:00:00
TRACK 12 AUDIO
TITLE "Lilly"
PERFORMER "Pink Martini"
ISRC USHNZ0400019
INDEX 00 02:47:16
FILE "12 - Lilly.wav" WAVE
INDEX 01 00:00:00
TRACK 13 AUDIO
TITLE "How Long Will It Last? (feat. Michael Feinstein)"
PERFORMER "Pink Martini"
ISRC USC4R0817333
INDEX 00 02:42:00
FILE "13 - How Long Will It Last (feat. Michael Feinstein).wav" WAVE
INDEX 01 00:00:00
TRACK 14 AUDIO
TITLE "Tuca Tuca"
PERFORMER "Pink Martini"
ISRC USHNZ0900078
INDEX 00 04:05:17
FILE "14 - Tuca Tuca.wav" WAVE
INDEX 01 00:00:00
TRACK 15 AUDIO
TITLE "Que Sera Sera"
PERFORMER "Pink Martini"
ISRC USHNZ0400004
INDEX 00 02:48:17
FILE "15 - Que Sera Sera.wav" WAVE
INDEX 01 00:00:00
TRACK 16 AUDIO
TITLE "Moon River (feat. Gus Van Sant)"
PERFORMER "Pink Martini"
ISRC USHNZ1100103
INDEX 00 04:10:37
FILE "16 - Moon River (feat. Gus Van Sant).wav" WAVE
INDEX 01 00:00:00
TRACK 17 AUDIO
TITLE "Amado Mio"
PERFORMER "Pink Martini"
ISRC USHNZ0400001
INDEX 00 01:22:71
FILE "17 - Amado Mio.wav" WAVE
INDEX 01 00:00:00
TRACK 18 AUDIO
TITLE "The Man With the Big Sombrero"
PERFORMER "Pink Martini"
ISRC USHNZ1100104
INDEX 00 04:46:30
FILE "18 - The Man With the Big Sombrero.wav" WAVE
INDEX 01 00:00:00
TRACK 19 AUDIO
TITLE "Aspettami (First Recording)"
PERFORMER "Pink Martini"
ISRC USHNZ1100105
INDEX 00 01:29:15
FILE "19 - Aspettami (First Recording).wav" WAVE
INDEX 01 00:00:00
TRACK 20 AUDIO
TITLE "Auld Lang Syne"
PERFORMER "Pink Martini"
ISRC USHNZ1000097
INDEX 00 02:48:19
FILE "20 - Auld Lang Syne.wav" WAVE
INDEX 01 00:00:00
TRACK 21 AUDIO
TITLE "Una Notta A Napoli (DJ Johnny Dynell Remix)"
PERFORMER "Pink Martini"
ISRC USHNZ1100106
INDEX 00 03:18:37
FILE "21 - Una Notta A Napoli (DJ Johnny Dynell Remix).wav" WAVE
INDEX 01 00:00:00
23:34
606
Нет комментариев. Ваш будет первым!