Поиск

(World Fusion, Latin Jazz, Accordeon) Richard Galliano & Tangaria Quartet - Live In Marciac 2006 - 2007, FLAC (tracks+.cue), lossless

Треклист:
Richard Galliano & Tangaria Quartet - Live In Marciac 2006
Жанр: World Fusion, Accordeon
Страна-производитель диска: France
Год издания диска: 2007
Издатель (лейбл): Milan Records
Номер по каталогу: 399 143-2
Страна: France
Аудиокодек: FLAC (*.flac)
Тип рипа: tracks+.cue
Битрейт аудио: lossless
Продолжительность: 01:12:22
Источник (релизер): anonymous
Наличие сканов в содержимом раздачи: нет
01. Tango Pour Claude [04:23]
02. Laurita [05:43]
03. Chat Pitre [03:27]
04. Tangaria [04:23]
05. Presentation des musiciens [00:35]
06. Fou Rire [06:39]
07. Sertao [06:12]
08. Disparada [06:38]
09. Chorinho Pra Ele [03:50]
10. Traditionnel Venezuelien [06:01]
11. Spleen [05:51]
12. Libertango [05:07]
13. Escualo [03:31]
14. Sanfona [04:22]
15. New York Tango [05:32]

Recorded live at Jazz a Marciac France
 
Лог создания рипа
Exact Audio Copy V0.99 prebeta 5 from 4. May 2009
EAC extraction logfile from 8. November 2010, 16:05
Richard Galliano / Live in Marciac
Used drive : HL-DT-STDVD-RAM GH22NP20 Adapter: 0 ID: 0
Read mode : Secure
Utilize accurate stream : Yes
Defeat audio cache : Yes
Make use of C2 pointers : No
Read offset correction : 102
Overread into Lead-In and Lead-Out : Yes
Fill up missing offset samples with silence : Yes
Delete leading and trailing silent blocks : No
Null samples used in CRC calculations : Yes
Used interface : Native Win32 interface for Win NT & 2000
Gap handling : Appended to previous track
Used output format : User Defined Encoder
Selected bitrate : 320 kBit/s
Quality : High
Add ID3 tag : No
Command line compressor : C:\Program Files\Exact Audio Copy\Flac\flac.exe
Additional command line options : -V -8 -T "artist=%a" -T "title=%t" -T "album=%g" -T "date=%y" -T "tracknumber=%n" -T "genre=%m" %s
TOC of the extracted CD
Track | Start | Length | Start sector | End sector
---------------------------------------------------------
1 | 0:00.00 | 4:23.71 | 0 | 19795
2 | 4:23.71 | 5:43.44 | 19796 | 45564
3 | 10:07.40 | 3:27.71 | 45565 | 61160
4 | 13:35.36 | 4:23.71 | 61161 | 80956
5 | 17:59.32 | 0:35.40 | 80957 | 83621
6 | 18:34.72 | 6:39.71 | 83622 | 113617
7 | 25:14.68 | 6:12.40 | 113618 | 141557
8 | 31:27.33 | 6:38.19 | 141558 | 171426
9 | 38:05.52 | 3:50.27 | 171427 | 188703
10 | 41:56.04 | 6:01.33 | 188704 | 215811
11 | 47:57.37 | 5:51.14 | 215812 | 242150
12 | 53:48.51 | 5:07.73 | 242151 | 265248
13 | 58:56.49 | 3:31.14 | 265249 | 281087
14 | 62:27.63 | 4:22.44 | 281088 | 300781
15 | 66:50.32 | 5:32.14 | 300782 | 325695
Track 1
Filename D:\EACrips\Richard Galliano - 2006 - Live in Marciac [FLAC]\01 - Tango Pour Claude.wav
Pre-gap length 0:00:02.00
Peak level 100.0 %
Track quality 100.0 %
Test CRC 70361FAF
Copy CRC 70361FAF
Cannot be verified as accurate (confidence 3) [BDD57995], AccurateRip returned [A32EB001]
Copy OK
Track 2
Filename D:\EACrips\Richard Galliano - 2006 - Live in Marciac [FLAC]\02 - Laurita.wav
Peak level 100.0 %
Track quality 100.0 %
Test CRC 450207B0
Copy CRC 450207B0
Cannot be verified as accurate (confidence 3) [5752FD97], AccurateRip returned [396F4BA8]
Copy OK
Track 3
Filename D:\EACrips\Richard Galliano - 2006 - Live in Marciac [FLAC]\03 - Chat Pitre.wav
Peak level 98.8 %
Track quality 100.0 %
Test CRC 8CE98C3C
Copy CRC 8CE98C3C
Cannot be verified as accurate (confidence 3) [D517CF1C], AccurateRip returned [3A60CD00]
Copy OK
Track 4
Filename D:\EACrips\Richard Galliano - 2006 - Live in Marciac [FLAC]\04 - Tangaria.wav
Peak level 99.8 %
Track quality 100.0 %
Test CRC E4560900
Copy CRC E4560900
Cannot be verified as accurate (confidence 3) [C2A5638D], AccurateRip returned [27691FFD]
Copy OK
Track 5
Filename D:\EACrips\Richard Galliano - 2006 - Live in Marciac [FLAC]\05 - Presentation des Musiciens.wav
Peak level 98.6 %
Track quality 99.6 %
Test CRC 65DDF915
Copy CRC 65DDF915
Cannot be verified as accurate (confidence 3) [CC36E311], AccurateRip returned [7E14AC56]
Copy OK
Track 6
Filename D:\EACrips\Richard Galliano - 2006 - Live in Marciac [FLAC]\06 - Fou Rire.wav
Peak level 100.0 %
Track quality 100.0 %
Test CRC BC72B935
Copy CRC BC72B935
Cannot be verified as accurate (confidence 3) [AD543116], AccurateRip returned [FA397FB6]
Copy OK
Track 7
Filename D:\EACrips\Richard Galliano - 2006 - Live in Marciac [FLAC]\07 - Sertao.wav
Peak level 100.0 %
Track quality 100.0 %
Test CRC 71492540
Copy CRC 71492540
Cannot be verified as accurate (confidence 3) [84073A28], AccurateRip returned [A2EF8F70]
Copy OK
Track 8
Filename D:\EACrips\Richard Galliano - 2006 - Live in Marciac [FLAC]\08 - Disparada.wav
Peak level 99.7 %
Track quality 100.0 %
Test CRC 2B947EED
Copy CRC 2B947EED
Cannot be verified as accurate (confidence 3) [B15BE0D3], AccurateRip returned [E7D30383]
Copy OK
Track 9
Filename D:\EACrips\Richard Galliano - 2006 - Live in Marciac [FLAC]\09 - Chorinho Pra Ele.wav
Peak level 98.9 %
Track quality 100.0 %
Test CRC 7AA74EDB
Copy CRC 7AA74EDB
Cannot be verified as accurate (confidence 3) [9D63A484], AccurateRip returned [AAB47BE9]
Copy OK
Track 10
Filename D:\EACrips\Richard Galliano - 2006 - Live in Marciac [FLAC]\10 - Traditionnel Venezuelien.wav
Peak level 100.0 %
Track quality 100.0 %
Test CRC 1D4B8AE4
Copy CRC 1D4B8AE4
Cannot be verified as accurate (confidence 3) [DE8F774B], AccurateRip returned [3BEDE67F]
Copy OK
Track 11
Filename D:\EACrips\Richard Galliano - 2006 - Live in Marciac [FLAC]\11 - Spleen.wav
Peak level 99.0 %
Track quality 100.0 %
Test CRC 201F5158
Copy CRC 201F5158
Cannot be verified as accurate (confidence 3) [2FB60F17], AccurateRip returned [347C21E1]
Copy OK
Track 12
Filename D:\EACrips\Richard Galliano - 2006 - Live in Marciac [FLAC]\12 - Libertango.wav
Peak level 99.3 %
Track quality 100.0 %
Test CRC 00B34086
Copy CRC 00B34086
Cannot be verified as accurate (confidence 3) [CFD50A74], AccurateRip returned [979ED131]
Copy OK
Track 13
Filename D:\EACrips\Richard Galliano - 2006 - Live in Marciac [FLAC]\13 - Escualo.wav
Peak level 100.0 %
Track quality 99.9 %
Test CRC 770EA93C
Copy CRC 770EA93C
Cannot be verified as accurate (confidence 3) [E0107D26], AccurateRip returned [5269B6F8]
Copy OK
Track 14
Filename D:\EACrips\Richard Galliano - 2006 - Live in Marciac [FLAC]\14 - Sanfona.wav
Peak level 99.0 %
Track quality 100.0 %
Test CRC C3D415A0
Copy CRC C3D415A0
Cannot be verified as accurate (confidence 3) [3D326920], AccurateRip returned [BAF8F7D0]
Copy OK
Track 15
Filename D:\EACrips\Richard Galliano - 2006 - Live in Marciac [FLAC]\15 - New York Tango.wav
Peak level 100.0 %
Track quality 100.0 %
Test CRC 8BD9BB8A
Copy CRC 8BD9BB8A
Cannot be verified as accurate (confidence 3) [F1702F42], AccurateRip returned [017FE486]
Copy OK
No tracks could be verified as accurate
You may have a different pressing from the one(s) in the database
No errors occurred
End of status report
 
Содержание индексной карты (.CUE)
REM GENRE Jazz
REM DATE 2006
REM DISCID DE10F60F
REM COMMENT "ExactAudioCopy v0.99pb5"
PERFORMER "Richard Galliano"
TITLE "Live In Marciac 2006"
FILE "01 - Tango Pour Claude.wav" WAVE
PERFORMER "Richard Galliano"
TRACK 01 AUDIO
TITLE "Tango Pour Claude"
PERFORMER "Richard Galliano"
INDEX 01 00:00:00
FILE "02 - Laurita.wav" WAVE
TRACK 02 AUDIO
TITLE "Laurita"
PERFORMER "Richard Galliano"
INDEX 01 00:00:00
FILE "03 - Chat Pitre.wav" WAVE
TRACK 03 AUDIO
TITLE "Chat Pitre"
PERFORMER "Richard Galliano"
INDEX 01 00:00:00
FILE "04 - Tangaria.wav" WAVE
TRACK 04 AUDIO
TITLE "Tangaria"
PERFORMER "Richard Galliano"
INDEX 01 00:00:00
FILE "05 - Presentation des Musiciens.wav" WAVE
TRACK 05 AUDIO
TITLE "Presentation des musiciens"
PERFORMER "Richard Galliano"
INDEX 01 00:00:00
FILE "06 - Fou Rire.wav" WAVE
TRACK 06 AUDIO
TITLE "Fou Rire"
PERFORMER "Richard Galliano"
INDEX 01 00:00:00
FILE "07 - Sertao.wav" WAVE
TRACK 07 AUDIO
TITLE "Sertao"
PERFORMER "Richard Galliano"
INDEX 01 00:00:00
FILE "08 - Disparada.wav" WAVE
TRACK 08 AUDIO
TITLE "Disparada"
PERFORMER "Richard Galliano"
INDEX 01 00:00:00
FILE "09 - Chorinho Pra Ele.wav" WAVE
TRACK 09 AUDIO
TITLE "Chorinho Pra Ele"
PERFORMER "Richard Galliano"
INDEX 01 00:00:00
FILE "10 - Traditionnel Venezuelien.wav" WAVE
TRACK 10 AUDIO
TITLE "Traditionnel Venezuelien"
PERFORMER "Richard Galliano"
INDEX 01 00:00:00
FILE "11 - Spleen.wav" WAVE
TRACK 11 AUDIO
TITLE "Spleen"
PERFORMER "Richard Galliano"
INDEX 01 00:00:00
FILE "12 - Libertango.wav" WAVE
TRACK 12 AUDIO
TITLE "Libertango"
PERFORMER "Richard Galliano"
INDEX 01 00:00:00
FILE "13 - Escualo.wav" WAVE
TRACK 13 AUDIO
TITLE "Escualo"
PERFORMER "Richard Galliano"
INDEX 01 00:00:00
FILE "14 - Sanfona.wav" WAVE
TRACK 14 AUDIO
TITLE "Sanfona"
PERFORMER "Richard Galliano"
INDEX 01 00:00:00
FILE "15 - New York Tango.wav" WAVE
TRACK 15 AUDIO
TITLE "New York Tango"
PERFORMER "Richard Galliano"
INDEX 01 00:00:00
 
Состав
Richard Galliano & Tangaria Quartet :
Richard Galliano Accordéon
Alexis Cardenas Violon Solo
Philippe Aerts Contrebasse
Rafaël Mejias Percussions.
Guest:
Hamilton de Holanda Mandoline
23:33
631
Нет комментариев. Ваш будет первым!