Поиск

(World Jazz) [2CD] Elvis Stanic Group - Sol & Luna - 2012, FLAC (tracks+.cue), lossless

(World Jazz) [2CD] Elvis Stanic Group - Sol & Luna - 2012, FLAC (tracks+.cue), lossless
Треклист:
Elvis Stanic Group / Sol & Luna
Жанр: World Jazz
Носитель: 2CD
Страна-производитель диска: Croatia
Год издания: 2012
Издатель (лейбл): Croatia Records
Номер по каталогу: 6000210
Страна: Croatia
Аудиокодек: FLAC (*.flac)
Тип рипа: tracks+.cue
Битрейт аудио: lossless
Продолжительность: 01:19:27
Источник (релизер): personnal
Наличие сканов в содержимом раздачи: нет
Треклист:
CD1
01. Elvis Stanic Group - Salson de Komizano 6:12
02. Elvis Stanic Group & Oliver Dragojevic - Brod u boci 5:12
03. Elvis Stanic Group & Meri Troselj - Ca je more 5:48
04. Elvis Stanic Group & Meri Troselj - Habibah 6:30
05. Elvis Stanic Group & Meri Troselj - The Teacher 4:31
06. Elvis Stanic Group & Alba Nacinovich - Breakout 5:00
07. Elvis Stanic Group - Cordoba 4:12
08. Elvis Stanic Group & Alba Nacinovich - Cantata 5:44
09. Elvis Stanic Group & Meri Troselj - Bosih nogu 4:31
CD2
01. Elvis Stanic Group - Harvard St. 6:34
02. Elvis Stanic Group - South Wind 5:46
03. Elvis Stanic Group - Bayloon 6:56
04. Elvis Stanic Group - Samba Mediterranea 6:12
05. Elvis Stanic Group - Peter Pan Pickin' Strawberries 6:19
 
Лог создания рипа CD1
Exact Audio Copy V1.0 beta 3 from 29. August 2011
EAC extraction logfile from 27. January 2014, 17:37
Elvis Stanic Group / Sol & Luna CD1
Used drive : ATAPI DVD A DH20A4P Adapter: 2 ID: 0
Read mode : Secure
Utilize accurate stream : Yes
Defeat audio cache : Yes
Make use of C2 pointers : No
Read offset correction : 6
Overread into Lead-In and Lead-Out : No
Fill up missing offset samples with silence : Yes
Delete leading and trailing silent blocks : No
Null samples used in CRC calculations : Yes
Used interface : Native Win32 interface for Win NT & 2000
Gap handling : Appended to previous track
Used output format : User Defined Encoder
Selected bitrate : 896 kBit/s
Quality : High
Add ID3 tag : No
Command line compressor : C:\Program Files\Exact Audio Copy\FLAC\FLAC.EXE
Additional command line options : -V -8 -T "Genre=%genre%" -T "Artist=%artist%" -T "Title=%title%" -T "Album=%albumtitle%" -T "Date=%year%" -T "Tracknumber=%tracknr%" -T "Comment=%comment%" %source%
TOC of the extracted CD
Track | Start | Length | Start sector | End sector
---------------------------------------------------------
1 | 0:00.00 | 6:11.42 | 0 | 27866
2 | 6:11.42 | 5:12.10 | 27867 | 51276
3 | 11:23.52 | 5:48.31 | 51277 | 77407
4 | 17:12.08 | 6:30.14 | 77408 | 106671
5 | 23:42.22 | 4:31.22 | 106672 | 127018
6 | 28:13.44 | 4:59.41 | 127019 | 149484
7 | 33:13.10 | 4:12.04 | 149485 | 168388
8 | 37:25.14 | 5:44.24 | 168389 | 194212
9 | 43:09.38 | 4:30.49 | 194213 | 214511
Track 1
Filename D:\Music\Jazz\Elvis Stanic - Sol & Luna (2012)\CD1\01 Salson de Komizano.wav
Pre-gap length 0:00:02.00
Peak level 99.9 %
Extraction speed 2.2 X
Track quality 100.0 %
Test CRC 80485DCD
Copy CRC 80485DCD
Cannot be verified as accurate (confidence 1) [E4FEBFFC], AccurateRip returned [99271923] (AR v2)
Copy OK
Track 2
Filename D:\Music\Jazz\Elvis Stanic - Sol & Luna (2012)\CD1\02 Brod u boci.wav
Peak level 99.9 %
Extraction speed 2.4 X
Track quality 100.0 %
Test CRC 1B22A16D
Copy CRC 1B22A16D
Cannot be verified as accurate (confidence 1) [1D09FDD0], AccurateRip returned [01C4BF5A] (AR v2)
Copy OK
Track 3
Filename D:\Music\Jazz\Elvis Stanic - Sol & Luna (2012)\CD1\03 Ca je more.wav
Peak level 99.9 %
Extraction speed 2.7 X
Track quality 100.0 %
Test CRC 1B75D9AF
Copy CRC 1B75D9AF
Cannot be verified as accurate (confidence 1) [D09BCD81], AccurateRip returned [904ADE0C] (AR v2)
Copy OK
Track 4
Filename D:\Music\Jazz\Elvis Stanic - Sol & Luna (2012)\CD1\04 Habibah.wav
Peak level 99.4 %
Extraction speed 2.9 X
Track quality 100.0 %
Test CRC BE816CCB
Copy CRC BE816CCB
Cannot be verified as accurate (confidence 1) [74093B4E], AccurateRip returned [28A902D6] (AR v2)
Copy OK
Track 5
Filename D:\Music\Jazz\Elvis Stanic - Sol & Luna (2012)\CD1\05 The Teacher.wav
Peak level 99.8 %
Extraction speed 3.0 X
Track quality 100.0 %
Test CRC CA495D18
Copy CRC CA495D18
Cannot be verified as accurate (confidence 1) [4571515D], AccurateRip returned [BB56C4D2] (AR v2)
Copy OK
Track 6
Filename D:\Music\Jazz\Elvis Stanic - Sol & Luna (2012)\CD1\06 Breakout.wav
Peak level 99.8 %
Extraction speed 3.2 X
Track quality 100.0 %
Test CRC 40FA58AE
Copy CRC 40FA58AE
Cannot be verified as accurate (confidence 1) [A17FF6F9], AccurateRip returned [CEF865D5] (AR v2)
Copy OK
Track 7
Filename D:\Music\Jazz\Elvis Stanic - Sol & Luna (2012)\CD1\07 Cordoba.wav
Peak level 99.8 %
Extraction speed 3.3 X
Track quality 100.0 %
Test CRC 5C1F0928
Copy CRC 5C1F0928
Cannot be verified as accurate (confidence 1) [9163A4BA], AccurateRip returned [F97537C5] (AR v2)
Copy OK
Track 8
Filename D:\Music\Jazz\Elvis Stanic - Sol & Luna (2012)\CD1\08 Cantata.wav
Peak level 99.8 %
Extraction speed 3.5 X
Track quality 100.0 %
Test CRC 49C2CF87
Copy CRC 49C2CF87
Cannot be verified as accurate (confidence 1) [B7042044], AccurateRip returned [9F25BAD4] (AR v2)
Copy OK
Track 9
Filename D:\Music\Jazz\Elvis Stanic - Sol & Luna (2012)\CD1\09 Bosih nogu.wav
Peak level 99.8 %
Extraction speed 3.6 X
Track quality 100.0 %
Test CRC F0A7D5C4
Copy CRC F0A7D5C4
Cannot be verified as accurate (confidence 1) [AB58991E], AccurateRip returned [2B5F3A4F] (AR v2)
Copy OK
No tracks could be verified as accurate
You may have a different pressing from the one(s) in the database
No errors occurred
End of status report
==== Log checksum EFA6340D9D2C4309D686A584BC21D88FC72C75DDB22FF8C47C3BE237F572A79C ====
 
Лог создания рипа CD2
Exact Audio Copy V1.0 beta 3 from 29. August 2011
EAC extraction logfile from 27. January 2014, 18:08
Elvis Stanic Group / Sol & Luna CD2
Used drive : ATAPI DVD A DH20A4P Adapter: 2 ID: 0
Read mode : Secure
Utilize accurate stream : Yes
Defeat audio cache : Yes
Make use of C2 pointers : No
Read offset correction : 6
Overread into Lead-In and Lead-Out : No
Fill up missing offset samples with silence : Yes
Delete leading and trailing silent blocks : No
Null samples used in CRC calculations : Yes
Used interface : Native Win32 interface for Win NT & 2000
Gap handling : Appended to previous track
Used output format : User Defined Encoder
Selected bitrate : 896 kBit/s
Quality : High
Add ID3 tag : No
Command line compressor : C:\Program Files\Exact Audio Copy\FLAC\FLAC.EXE
Additional command line options : -V -8 -T "Genre=%genre%" -T "Artist=%artist%" -T "Title=%title%" -T "Album=%albumtitle%" -T "Date=%year%" -T "Tracknumber=%tracknr%" -T "Comment=%comment%" %source%
TOC of the extracted CD
Track | Start | Length | Start sector | End sector
---------------------------------------------------------
1 | 0:00.00 | 6:34.20 | 0 | 29569
2 | 6:34.20 | 5:46.26 | 29570 | 55545
3 | 12:20.46 | 6:56.32 | 55546 | 86777
4 | 19:17.03 | 6:12.15 | 86778 | 114692
5 | 25:29.18 | 6:18.48 | 114693 | 143090
Track 1
Filename D:\Music\Jazz\Elvis Stanic - Sol & Luna (2012)\CD2\01 Harvard.wav
Pre-gap length 0:00:02.00
Peak level 99.9 %
Extraction speed 2.2 X
Track quality 100.0 %
Test CRC AA008862
Copy CRC AA008862
Cannot be verified as accurate (confidence 1) [C6D195E6], AccurateRip returned [79DB588C] (AR v2)
Copy OK
Track 2
Filename D:\Music\Jazz\Elvis Stanic - Sol & Luna (2012)\CD2\02 South Wind.wav
Peak level 99.9 %
Extraction speed 2.5 X
Track quality 100.0 %
Test CRC 52AF3079
Copy CRC 52AF3079
Cannot be verified as accurate (confidence 1) [633EE8DE], AccurateRip returned [3221D13A] (AR v2)
Copy OK
Track 3
Filename D:\Music\Jazz\Elvis Stanic - Sol & Luna (2012)\CD2\03 Bayloon.wav
Peak level 99.9 %
Extraction speed 2.8 X
Track quality 100.0 %
Test CRC AFF93C06
Copy CRC AFF93C06
Cannot be verified as accurate (confidence 1) [AC39FE47], AccurateRip returned [4249F25C] (AR v2)
Copy OK
Track 4
Filename D:\Music\Jazz\Elvis Stanic - Sol & Luna (2012)\CD2\04 Samba Mediterranea.wav
Peak level 99.9 %
Extraction speed 2.6 X
Track quality 99.9 %
Test CRC 7DA4CA05
Copy CRC 7DA4CA05
Cannot be verified as accurate (confidence 1) [EFD18F50], AccurateRip returned [3578B778] (AR v2)
Copy OK
Track 5
Filename D:\Music\Jazz\Elvis Stanic - Sol & Luna (2012)\CD2\05 Peter Pan Pickin' Strawberries.wav
Peak level 99.9 %
Extraction speed 3.2 X
Track quality 100.0 %
Test CRC BD6EABFD
Copy CRC BD6EABFD
Cannot be verified as accurate (confidence 1) [E334DBEC], AccurateRip returned [81CA9217] (AR v2)
Copy OK
No tracks could be verified as accurate
You may have a different pressing from the one(s) in the database
No errors occurred
End of status report
==== Log checksum BF876220C58536A83B156151240733D5B675A59B465FBD9FEEC38D9F7F1F8FD6 ====
 
Содержание индексной карты (.CUE) CD1
REM GENRE "World Jazz"
REM DATE 2012
REM DISCID 820B2C09
REM COMMENT "ExactAudioCopy v1.0b3"
PERFORMER "Elvis Stanic Group"
TITLE "Sol & Luna CD1"
FILE "01 Salson de Komizano.flac" WAVE
TRACK 01 AUDIO
TITLE "Salson de Komizano"
PERFORMER "Elvis Stanic Group"
INDEX 01 00:00:00
FILE "02 Brod u boci.flac" WAVE
TRACK 02 AUDIO
TITLE "Brod u boci"
PERFORMER "Elvis Stanic Group"
INDEX 01 00:00:00
FILE "03 Ca je more.flac" WAVE
TRACK 03 AUDIO
TITLE "Ca je more"
PERFORMER "Elvis Stanic Group"
INDEX 01 00:00:00
FILE "04 Habibah.flac" WAVE
TRACK 04 AUDIO
TITLE "Habibah"
PERFORMER "Elvis Stanic Group"
INDEX 01 00:00:00
FILE "05 The Teacher.flac" WAVE
TRACK 05 AUDIO
TITLE "The Teacher"
PERFORMER "Elvis Stanic Group"
INDEX 01 00:00:00
FILE "06 Breakout.flac" WAVE
TRACK 06 AUDIO
TITLE "Breakout"
PERFORMER "Elvis Stanic Group"
INDEX 01 00:00:00
FILE "07 Cordoba.flac" WAVE
TRACK 07 AUDIO
TITLE "Cordoba"
PERFORMER "Elvis Stanic Group"
INDEX 01 00:00:00
FILE "08 Cantata.flac" WAVE
TRACK 08 AUDIO
TITLE "Cantata"
PERFORMER "Elvis Stanic Group"
INDEX 01 00:00:00
FILE "09 Bosih nogu.flac" WAVE
TRACK 09 AUDIO
TITLE "Bosih nogu"
PERFORMER "Elvis Stanic Group"
INDEX 01 00:00:00
 
Содержание индексной карты (.CUE) CD2
REM GENRE "World Jazz"
REM DATE 2012
REM DISCID 3B077305
REM COMMENT "ExactAudioCopy v1.0b3"
PERFORMER "Elvis Stanic Group"
TITLE "Sol & Luna CD2"
FILE "01 Harvard.flac" WAVE
TRACK 01 AUDIO
TITLE "Harvard"
PERFORMER "Elvis Stanic Group"
INDEX 01 00:00:00
FILE "02 South Wind.flac" WAVE
TRACK 02 AUDIO
TITLE "South Wind"
PERFORMER "Elvis Stanic Group"
INDEX 01 00:00:00
FILE "03 Bayloon.flac" WAVE
TRACK 03 AUDIO
TITLE "Bayloon"
PERFORMER "Elvis Stanic Group"
INDEX 01 00:00:00
FILE "04 Samba Mediterranea.flac" WAVE
TRACK 04 AUDIO
TITLE "Samba Mediterranea"
PERFORMER "Elvis Stanic Group"
INDEX 01 00:00:00
FILE "05 Peter Pan Pickin' Strawberries.flac" WAVE
TRACK 05 AUDIO
TITLE "Peter Pan Pickin' Strawberries"
PERFORMER "Elvis Stanic Group"
INDEX 01 00:00:00
Доп. информация:
http://shop.crorec.hr/crorec.hr/ws_o_izdanju.php?IZVODJAC_ID=101014&IZDANJE_ID=698244
 
Об исполнителе (группе)
 
Об альбоме (сборнике)
Elvis Stanić Group's "Sol et Luna" new double album is now available, released on Croatia Records label. The album "Sol" includes nine new compositions and a cover version of "Brod u boci" a song by Oliver Dragojević a major Croatian pop-star. Oliver also sung on this version. Album "Luna" is a live session recording from the concert at Club Palach in Rijeka.
Stanić music this time relays on Mediterranean music both from Europe and North Africa imbued with sophisticated sounds of many traditional instruments.
Elvis Stanić Group
Sol & Luna
(Croatia Records)
Elvis Stanić, cijenjeni lovranski gitarist, harmonikaš, skladatelj, aranžer, producent i organizator jazz festivala, objavio je novi dvostruki CD Sol & Luna. Na promotivnim koncertima što ih je sa svojim Bandom održao 26. lipnja 2012. u zagrebačkom Vip Clubu i 6. srpnja na Liburnia Jazz Festivalu u Opatiji, pokazao je da mu koncertne izvedbe ni u jednom dijelu ne zaostaju za studijskima.
Za snimanje novog albuma Stanić se pouzdao u stalne dugogodišnje suradnike: pjevačicu Meri Trošelj, klavijaturista Maaseja Kovačevića, basista Gorana Rukavinu i bubnjara Branimira Gazdika. S njima je nastupio u riječkom Palach Clubu, još jednom dovoljno uspješno da snimke s koncerta uvrsti na drugi CD - Luna. Svojevrsni je to "best off " Stanićeva stvaralaštva. Naime, radi se o izvedbama pet skladbi iz raznih razdoblja karijere koje pružaju uvid u razvoj njegove glazbe tijekom petnaest godina. One odaju sjajnog gitarista (svira samo gitaru) prepoznatljiva zvuka, ali i svestranog autora koji je stvorio osoban glazbeni govor zasnovan na jazzu i fusionu, začinjen glazbenim elementima brazilske, mediteranske, ukratko, svjetske glazbe, uvijek uz aranžmane u kojima ima dovoljno prostora za improvizacije svih članova Banda, dovoljno vještih da tom dijelu daju vlastiti doprinos.
Aranžersku i skladateljsku vještinu, muzikalnost, maštovitost i osebujnost, Stanić dokazuje studijskim izvedbama uvrštenima na prvi CD - Sol - u kojima, osim gitara, svira i harmoniku. Radi se o sedam novijih skladbi od kojih je jednu, Bosih nogu, napisao u suradnji s pjevačicom Meri Trošelj s kojom ju izvodi u duu svirajući citru, zatim o Stanićevoj obradi istarske narodne pjesme Ča je more te njegovoj obradi pjesme Brod u boci Remija Kazinotija i Zlatana Stipišića Gibonnija iz repertoara Olivera Dragojevića koji se u izvedbi, kao i na koncertu u Opatiji, pridružio sastavu. U tim djelima Stanić je ponovno "otputovao" u krajeve koji ga glazbeno fasciniraju: Španjolsku, Kubu, Sjevernu Afriku, Bliski istok. Njihove glazbene osebujnosti još je snažnije utkao u svoj fusion istup sve više okrenut World Music zvuku, kao i na prethodnom albumu Bolja strana svijeta. Govorimo li o djelovanju njegova Banda, Stanić se na albumu više nego ikada okreće autorskoj suradnji s riječkim zborom Putokazi. Naime, vokal je za njega uvijek igrao važnu ulogu, a tako je i na ovom CD-u. Zato je, uz spomenute glazbenike, uključujući pjevačicu Meri Trošelj te trubače Antonia Gečeka i Branka Sterpina, na snimanje pozvao u goste bivše članice Putokaza, Natašu Tonković i Natašu Uljan te mladu Albu Nacinovich. U većini skladbi ne radi se o interpretaciji stihova već o pjevanju vokaliza koje u Stanićevim zamislima poprimaju boju novoga glazbala i time cjelini daju poseban zvuk.
Dvostrukim CD-om Sol & Luna, Stanić poručuje da njegova kreativna iskra i poriv za nova glazbena istraživanja ne posustaju. Naprotiv, glazbeni materijal objavljen je s opravdanim razlogom kako bi se dokumentirao još jedan pomak u njegovoj karijeri.
(Preuzeto iz novina Cantus, br. 175)
Autor: Davor Hrvoj
 
Состав
Elvis Stanić (guitar, accordeon)
Meri Trošelj, Alba Načinović, Oliver Dragojević (vocal)
Maasej Kovačević (piano, keyboards)
Branimir Gazdik (drums)
Goran Rukavina (double bass, bass guitar)
14:26
456
Нет комментариев. Ваш будет первым!