Поиск

(World Fusion, Ethnic Jazz) [CD] Mulatu Astatke - Sketches of Ethiopia - 2013, FLAC (tracks+.cue), lossless

(World Fusion, Ethnic Jazz) [CD] Mulatu Astatke - Sketches of Ethiopia - 2013, FLAC (tracks+.cue), lossless
Треклист:
♦ Mulatu Astatke - Sketches of Ethiopia ♦
Жанр: World Fusion, Ethnic Jazz
Носитель: CD
Страна-производитель диска: Austria
Год издания: 2013
Издатель (лейбл): Jazz Village
Аудиокодек: FLAC (*.flac)
Тип рипа: tracks+.cue
Битрейт аудио: lossless
Продолжительность: 00:52:29
Источник (релизер): dtromp
Наличие сканов в содержимом раздачи: да
Треклист:
01. Azmari [05:00]
02. Gamo [05:15]
03. Hager Fiker [06:08]
04. Gambella [06:12]
05. Assosa Derache [10:03]
06. Gumuz [06:30]
07. Motherland Abay [08:34]
08. Surma [04:42]
 
Лог создания рипа
Exact Audio Copy V1.0 beta 3 from 29. August 2011
EAC extraction logfile from 9. January 2014, 10:41
Mulatu Astatke / Sketches of Ethiopia
Used drive : PLEXTOR DVDR PX-860A Adapter: 0 ID: 0
Read mode : Secure
Utilize accurate stream : Yes
Defeat audio cache : Yes
Make use of C2 pointers : No
Read offset correction : 96
Overread into Lead-In and Lead-Out : No
Fill up missing offset samples with silence : Yes
Delete leading and trailing silent blocks : No
Null samples used in CRC calculations : Yes
Used interface : Native Win32 interface for Win NT & 2000
Gap handling : Appended to previous track
Used output format : User Defined Encoder
Selected bitrate : 1024 kBit/s
Quality : High
Add ID3 tag : No
Command line compressor : C:\Program Files\Exact Audio Copy\Flac\flac.exe
Additional command line options : -8 -V -T "ARTIST=%artist%" -T "TITLE=%title%" -T "ALBUM=%albumtitle%" -T "DATE=%year%" -T "TRACKNUMBER=%tracknr%" -T "TOTALTRACKS=%numtracks%" -T "GENRE=%genre%" -T "ALBUMARTIST=%albumartist%" -T "ALBUM ARTIST=%albumartist%" -T "COMMENT=EAC Secure Mode, Test & Copy, AccurateRip, FLAC -8" %source%
TOC of the extracted CD
Track | Start | Length | Start sector | End sector
---------------------------------------------------------
1 | 0:00.00 | 5:00.64 | 0 | 22563
2 | 5:00.64 | 5:15.46 | 22564 | 46234
3 | 10:16.35 | 6:08.41 | 46235 | 73875
4 | 16:25.01 | 6:12.40 | 73876 | 101815
5 | 22:37.41 | 10:03.70 | 101816 | 147110
6 | 32:41.36 | 6:30.38 | 147111 | 176398
7 | 39:11.74 | 8:34.07 | 176399 | 214955
8 | 47:46.06 | 4:42.74 | 214956 | 236179
Track 1
Filename O:\DL\Mulatu Astatke - Sketches of Ethiopia (2013) [FLAC]\01 - Azmari.wav
Pre-gap length 0:00:02.00
Peak level 98.4 %
Extraction speed 4.4 X
Track quality 100.0 %
Test CRC C211859E
Copy CRC C211859E
Accurately ripped (confidence 8) [856E0F32] (AR v2)
Copy OK
Track 2
Filename O:\DL\Mulatu Astatke - Sketches of Ethiopia (2013) [FLAC]\02 - Gamo.wav
Peak level 97.3 %
Extraction speed 4.9 X
Track quality 100.0 %
Test CRC 9E0208AF
Copy CRC 9E0208AF
Accurately ripped (confidence 8) [56EA836D] (AR v2)
Copy OK
Track 3
Filename O:\DL\Mulatu Astatke - Sketches of Ethiopia (2013) [FLAC]\03 - Hager Fiker.wav
Peak level 97.1 %
Extraction speed 5.5 X
Track quality 100.0 %
Test CRC 4DFA8169
Copy CRC 4DFA8169
Accurately ripped (confidence 8) [C755C5CF] (AR v2)
Copy OK
Track 4
Filename O:\DL\Mulatu Astatke - Sketches of Ethiopia (2013) [FLAC]\04 - Gambella.wav
Peak level 97.1 %
Extraction speed 5.9 X
Track quality 100.0 %
Test CRC A3E7DB69
Copy CRC A3E7DB69
Accurately ripped (confidence 8) [98332EBD] (AR v2)
Copy OK
Track 5
Filename O:\DL\Mulatu Astatke - Sketches of Ethiopia (2013) [FLAC]\05 - Assosa Derache.wav
Peak level 97.4 %
Extraction speed 6.4 X
Track quality 99.9 %
Test CRC 57FA4B39
Copy CRC 57FA4B39
Accurately ripped (confidence 8) [3EC75894] (AR v2)
Copy OK
Track 6
Filename O:\DL\Mulatu Astatke - Sketches of Ethiopia (2013) [FLAC]\06 - Gumuz.wav
Peak level 96.0 %
Extraction speed 7.1 X
Track quality 100.0 %
Test CRC 1E28CABF
Copy CRC 1E28CABF
Accurately ripped (confidence 8) [0017DF4B] (AR v2)
Copy OK
Track 7
Filename O:\DL\Mulatu Astatke - Sketches of Ethiopia (2013) [FLAC]\07 - Motherland Abay.wav
Peak level 96.9 %
Extraction speed 7.4 X
Track quality 100.0 %
Test CRC B93F7E1F
Copy CRC B93F7E1F
Accurately ripped (confidence 8) [C1AD191D] (AR v2)
Copy OK
Track 8
Filename O:\DL\Mulatu Astatke - Sketches of Ethiopia (2013) [FLAC]\08 - Surma.wav
Peak level 93.9 %
Extraction speed 7.3 X
Track quality 100.0 %
Test CRC 5E001738
Copy CRC 5E001738
Accurately ripped (confidence 8) [9103E834] (AR v2)
Copy OK
All tracks accurately ripped
No errors occurred
End of status report
---- CUETools DB Plugin V2.1.3
[CTDB TOCID: NV4EgJMcGXYIfogrJMMr.s89l94-] found, Submit result: NV4EgJMcGXYIfogrJMMr.s89l94- has been confirmed
[9ebd2cc9] (12/12) Accurately ripped
==== Log checksum F4008294618CC83EBA8C073F8DBD1AD2A86BEF21391F9D94757E6B83E708A9AB ====
 
Содержание индексной карты (.CUE)
REM GENRE Jazz
REM DATE 2013
REM DISCID 780C4D08
REM COMMENT "ExactAudioCopy v1.0b3"
PERFORMER "Mulatu Astatke"
TITLE "Sketches of Ethiopia"
FILE "01 - Azmari.wav" WAVE
TRACK 01 AUDIO
TITLE "Azmari"
PERFORMER "Mulatu Astatke"
INDEX 01 00:00:00
FILE "02 - Gamo.wav" WAVE
TRACK 02 AUDIO
TITLE "Gamo"
PERFORMER "Mulatu Astatke"
INDEX 01 00:00:00
FILE "03 - Hager Fiker.wav" WAVE
TRACK 03 AUDIO
TITLE "Hager Fiker"
PERFORMER "Mulatu Astatke"
INDEX 01 00:00:00
FILE "04 - Gambella.wav" WAVE
TRACK 04 AUDIO
TITLE "Gambella"
PERFORMER "Mulatu Astatke"
INDEX 01 00:00:00
FILE "05 - Assosa Derache.wav" WAVE
TRACK 05 AUDIO
TITLE "Assosa Derache"
PERFORMER "Mulatu Astatke"
INDEX 01 00:00:00
FILE "06 - Gumuz.wav" WAVE
TRACK 06 AUDIO
TITLE "Gumuz"
PERFORMER "Mulatu Astatke"
INDEX 01 00:00:00
FILE "07 - Motherland Abay.wav" WAVE
TRACK 07 AUDIO
TITLE "Motherland Abay"
PERFORMER "Mulatu Astatke"
INDEX 01 00:00:00
FILE "08 - Surma.wav" WAVE
TRACK 08 AUDIO
TITLE "Surma"
PERFORMER "Mulatu Astatke"
INDEX 01 00:00:00
 
Состав
Mulatu Astatke - vibraphone, piano, keyboards
Yohanes Afwork - washint (flute)
James Arben - flute, oboe, tenor saxophone, clarinet
Messale Asmamow - krarr (lute)
Richard Olatunde Baker - percussion
John Edwards - double-bass, bass
Indris Hassun - masinko (lute)
Alexander Hawkins - piano, keyboards
Danny Keane - keyboards, cello
Tom Skinner - drums
Tesfaye - lead vocals on 2, 4, 6
Byron Wallen - trumpet
Fatoumata Diawara - lead vocals on track 8
13:25
584
Нет комментариев. Ваш будет первым!