Поиск

(World Fusion/ Salsa/Jazz) VA - La Habana - I Love Cuba Sam - 1996, APE (image+.cue), lossless

(World Fusion/ Salsa/Jazz) VA - La Habana - I Love Cuba Sam - 1996, APE (image+.cue), lossless
La Habana - I Love Cuba Sam
Жанр: World Fusion/ Salsa/Jazz
Страна-производитель диска: Mexico
Год издания: 1996
Издатель (лейбл): Universal
Номер по каталогу: UMD 80495
Страна: Cuba??
Аудиокодек: APE (*.ape)
Тип рипа: image+.cue
Битрейт аудио: lossless
Продолжительность: 55'45
Источник (релизер): Own rip
Наличие сканов в содержимом раздачи: да
Треклист:
01. David Calzado y La Charanga Haberna - Pare Cochero
02. Lucrecia y su Orchestra - Me Quito
03. Yumuri y sus Hermanos - Quitate Tu
04. Los Surik - Estoy Romantica
05. Paulito y su Elite - Testamento Musical
06. Los Zafiros - Bossa Cubana
07. David Calzado y La Charanga Haberna - Presente y Pasano
08. Lucrecia y su Orchestra - Espera
09. Yumuri y sus Hermanos - Que Siga la Fiesta
10. Los Sirik - Lo Que Cae es Candela
11. Paulito y su Elite - Se lo Busco
12. Los Zafiros - Cha Cha Cha de la Mujer
 
Лог создания рипа
Exact Audio Copy V1.0 beta 3 from 29. August 2011
EAC extraction logfile from 25. February 2013, 23:30
La Habana / I Love Cuba Sam
Used drive : HL-DT-STDVD-RAM GSA-H55N Adapter: 0 ID: 0
Read mode : Secure
Utilize accurate stream : Yes
Defeat audio cache : Yes
Make use of C2 pointers : No
Read offset correction : 102
Overread into Lead-In and Lead-Out : No
Fill up missing offset samples with silence : Yes
Delete leading and trailing silent blocks : No
Null samples used in CRC calculations : Yes
Used interface : Native Win32 interface for Win NT & 2000
Used output format : Monkey's Audio Lossless Encoder
Selected bitrate : Fast Lossless Compression
Quality : High
Add ID3 tag : Yes
Command line compressor : C:\Program Files\Exact Audio Copy\Monkeys Audio\MAC.exe
Additional command line options : %dest% -t "Artist=%artist%" -t "Title=%title%" -t "Album=%albumtitle%" -t "Year=%year%" -t "Track=%tracknr%" -t "Genre=%genre%" mac.exe %source% %dest% -c3000 -v
TOC of the extracted CD
Track | Start | Length | Start sector | End sector
---------------------------------------------------------
1 | 0:00.00 | 4:33.05 | 0 | 20479
2 | 4:33.05 | 4:58.72 | 20480 | 42901
3 | 9:32.02 | 5:33.45 | 42902 | 67921
4 | 15:05.47 | 5:28.03 | 67922 | 92524
5 | 20:33.50 | 4:41.05 | 92525 | 113604
6 | 25:14.55 | 2:44.20 | 113605 | 125924
7 | 27:59.00 | 4:04.30 | 125925 | 144254
8 | 32:03.30 | 4:09.37 | 144255 | 162966
9 | 36:12.67 | 5:56.65 | 162967 | 189731
10 | 42:09.57 | 5:05.58 | 189732 | 212664
11 | 47:15.40 | 5:20.55 | 212665 | 236719
12 | 52:36.20 | 3:09.10 | 236720 | 250904
Range status and errors
Selected range
Filename E:\Muziek\La Habana - I Love Cuba Sam.wav
Peak level 97.7 %
Extraction speed 2.6 X
Range quality 99.9 %
Copy CRC 1F991FDF
Copy OK
No errors occurred
AccurateRip summary
Track 1 accurately ripped (confidence 1) [6EA12066] (AR v1)
Track 2 accurately ripped (confidence 1) [92DA7708] (AR v1)
Track 3 accurately ripped (confidence 1) [C7733CD7] (AR v1)
Track 4 accurately ripped (confidence 1) [E049F299] (AR v1)
Track 5 accurately ripped (confidence 1) [EC09A26C] (AR v1)
Track 6 accurately ripped (confidence 1) [FDC841CD] (AR v1)
Track 7 accurately ripped (confidence 1) [521D14A0] (AR v1)
Track 8 accurately ripped (confidence 1) [56E6B1F3] (AR v1)
Track 9 accurately ripped (confidence 1) [0D199101] (AR v1)
Track 10 accurately ripped (confidence 1) [68BA9612] (AR v1)
Track 11 accurately ripped (confidence 1) [9D5A75A8] (AR v1)
Track 12 accurately ripped (confidence 1) [2B6B74ED] (AR v1)
All tracks accurately ripped
End of status report
---- CUETools DB Plugin V2.1.3
[CTDB TOCID: 90D1YKNy4jwckni1PD9RUkJG9Xg-] disk not present in database, Submit result: 90D1YKNy4jwckni1PD9RUkJG9Xg- has been uploaded
==== Log checksum A87D645C6B7418104C212B67B371297B48FE1CF357B73761BA695B27EC4B4C81 ====
 
Содержание индексной карты (.CUE)
REM GENRE Salsa
REM DATE 1997
REM DISCID A70D110C
REM COMMENT "ExactAudioCopy v1.0b3"
PERFORMER "La Habana"
TITLE "I Love Cuba Sam"
FILE "La Habana - I Love Cuba Sam.ape" WAVE
TRACK 01 AUDIO
TITLE "David Calzado y La Charanga Haberna - Pare Cochero"
PERFORMER "La Habana"
INDEX 01 00:00:00
TRACK 02 AUDIO
TITLE "Lucrecia y su Orchestra - Me Quito"
PERFORMER "La Habana"
INDEX 00 04:30:02
INDEX 01 04:33:05
TRACK 03 AUDIO
TITLE "Yumuri y sus Hermanos - Quitate Tu"
PERFORMER "La Habana"
INDEX 00 09:29:02
INDEX 01 09:32:02
TRACK 04 AUDIO
TITLE "Los Surik - Estoy Romantica"
PERFORMER "La Habana"
INDEX 00 15:02:57
INDEX 01 15:05:47
TRACK 05 AUDIO
TITLE "Paulito y su Elite - Testamento Musical"
PERFORMER "La Habana"
INDEX 00 20:30:67
INDEX 01 20:33:50
TRACK 06 AUDIO
TITLE "Los Zafiros - Bossa Cubana"
PERFORMER "La Habana"
INDEX 00 25:11:15
INDEX 01 25:14:55
TRACK 07 AUDIO
TITLE "David Calzado y La Charanga Haberna - Presente y Pasano"
PERFORMER "La Habana"
INDEX 00 27:56:12
INDEX 01 27:59:00
TRACK 08 AUDIO
TITLE "Lucrecia y su Orchestra - Espera"
PERFORMER "La Habana"
INDEX 00 32:00:15
INDEX 01 32:03:30
TRACK 09 AUDIO
TITLE "Yumuri y sus Hermanos - Que Siga la Fiesta"
PERFORMER "La Habana"
INDEX 00 36:10:00
INDEX 01 36:12:67
TRACK 10 AUDIO
TITLE "Los Sirik - Lo Que Cae es Candela"
PERFORMER "La Habana"
INDEX 00 42:07:22
INDEX 01 42:09:57
TRACK 11 AUDIO
TITLE "Paulito y su Elite - Se lo Busco"
PERFORMER "La Habana"
INDEX 00 47:12:42
INDEX 01 47:15:40
TRACK 12 AUDIO
TITLE "Los Zafiros - Cha Cha Cha de la Mujer"
PERFORMER "La Habana"
INDEX 00 52:32:67
INDEX 01 52:36:20
 
Об исполнителе (группе)
See tracklist!!
11:51
263
Нет комментариев. Ваш будет первым!