Поиск

(Latin Jazz, Post-Bop) Cal Tjader - Amazonas - 1975, FLAC (tracks+.cue), lossless

(Latin Jazz, Post-Bop) Cal Tjader - Amazonas - 1975, FLAC (tracks+.cue), lossless
Треклист:
Cal Tjader - Amazonas
Жанр: Latin Jazz, Post-Bop
Страна-производитель диска: США
Год издания: 1994
Издатель (лейбл): Fantasy/Original Jazz Classics
Номер по каталогу: OJCCD-840-2 (F-9502)
Аудиокодек: FLAC (*.flac)
Тип рипа: tracks+.cue
Битрейт аудио: lossless
Продолжительность: 48:23
Источник (релизер): unicorn
Наличие сканов в содержимом раздачи: да
Треклист:
01. Amazonas (Donato) - 4:29
02. Xibaba (Moreira) - 5:55
03. Mindoro (Tjader-Pascoal) - 4:30
04. Flying (Amaro) - 4:11
05. Corine (Duke) - 5:16
06. Noa Noa (Mendes) - 4:14
07. Tamanco No Samba (Divo-Menezes) - 5:33
08. Cahuenga (Milanez) - 4:46
09. Cahuenga (long version) (Milanez) - 9:29
Состав:
Cal Tjader - vibes, marimba
David Amaro - electric and acoustic guitars
Dawilli Gonga - electric keyboards
Egberto Gismonti - acoustic piano, synthesizer
Luiz Alves - bass
Robertinho Silva - drums, percussion
Raul de Souza - trombone (#6)
Hermeto Pascoal - flute (#2,3,8,9)
Aloisio Milanez - acoustic piano (#7)
Produced by Airto Moreira.
Recorded at Wally Heider's Recording Studio, Los Angeles in June 1975.
 
Лог создания рипа
EAC extraction logfile from 9. May 2008, 0:10 for CD
Cal Tjader / Amazonas
Used drive : HL-DT-STCDRW/DVD GCC4482 Adapter: 1 ID: 0
Read mode : Secure with NO C2, accurate stream, disable cache
Read offset correction : 6
Overread into Lead-In and Lead-Out : No
Used output format : C:\Eac\Codecs\flac.exe (User Defined Encoder)
320 kBit/s
Additional command line options : -8 -V -T "artist=%a" -T "title=%t" -T "album=%g" -T "date=%y" -T "tracknumber=%n" -T "genre=%m" -T "comment=EAC Flac 1.1.2 -8" %s
Other options :
Fill up missing offset samples with silence : Yes
Delete leading and trailing silent blocks : No
Installed external ASPI interface
Track 1
Filename C:\Documents and Settings\cal\01 - Amazonas.wav
Pre-gap length 0:00:02.00
Peak level 100.0 %
Track quality 100.0 %
Test CRC DAC2DB79
Copy CRC DAC2DB79
Copy OK
Track 2
Filename C:\Documents and Settings\cal\02 - Xibaba.wav
Pre-gap length 0:00:00.86
Peak level 100.0 %
Track quality 100.0 %
Test CRC 4525234C
Copy CRC 4525234C
Copy OK
Track 3
Filename C:\Documents and Settings\cal\03 - Mindoro.wav
Pre-gap length 0:00:01.30
Peak level 100.0 %
Track quality 100.0 %
Test CRC 96654E60
Copy CRC 96654E60
Copy OK
Track 4
Filename C:\Documents and Settings\cal\04 - Flying.wav
Pre-gap length 0:00:01.89
Peak level 100.0 %
Track quality 100.0 %
Test CRC 888344E6
Copy CRC 888344E6
Copy OK
Track 5
Filename C:\Documents and Settings\cal\05 - Corine.wav
Pre-gap length 0:00:01.13
Peak level 100.0 %
Track quality 100.0 %
Test CRC 39BEDFC3
Copy CRC 39BEDFC3
Copy OK
Track 6
Filename C:\Documents and Settings\cal\06 - Noa Noa.wav
Pre-gap length 0:00:02.82
Peak level 100.0 %
Track quality 100.0 %
Test CRC 34A668E9
Copy CRC 34A668E9
Copy OK
Track 7
Filename C:\Documents and Settings\cal\07 - Tamanco No Samba.wav
Pre-gap length 0:00:01.97
Peak level 100.0 %
Track quality 100.0 %
Test CRC 08521520
Copy CRC 08521520
Copy OK
Track 8
Filename C:\Documents and Settings\cal\08 - Cahuenga.wav
Pre-gap length 0:00:00.49
Peak level 100.0 %
Track quality 100.0 %
Test CRC 3B542D42
Copy CRC 3B542D42
Copy OK
Track 9
Filename C:\Documents and Settings\cal\09 - Cahuenga (long version).wav
Pre-gap length 0:00:01.46
Peak level 100.0 %
Track quality 100.0 %
Test CRC CC6D57B5
Copy CRC CC6D57B5
Copy OK
No errors occured
End of status report
 
Содержание индексной карты (.CUE)
REM GENRE Jazz
REM DATE 1975
REM DISCID 6E0B5409
REM COMMENT "ExactAudioCopy v0.95b4"
PERFORMER "Cal Tjader"
TITLE "Amazonas"
FILE "01 - Amazonas.wav" WAVE
TRACK 01 AUDIO
TITLE "Amazonas"
PERFORMER "Cal Tjader"
INDEX 01 00:00:00
TRACK 02 AUDIO
TITLE "Xibaba"
PERFORMER "Cal Tjader"
INDEX 00 04:27:63
FILE "02 - Xibaba.wav" WAVE
INDEX 01 00:00:00
TRACK 03 AUDIO
TITLE "Mindoro"
PERFORMER "Cal Tjader"
INDEX 00 05:53:42
FILE "03 - Mindoro.wav" WAVE
INDEX 01 00:00:00
TRACK 04 AUDIO
TITLE "Flying"
PERFORMER "Cal Tjader"
INDEX 00 04:28:00
FILE "04 - Flying.wav" WAVE
INDEX 01 00:00:00
TRACK 05 AUDIO
TITLE "Corine"
PERFORMER "Cal Tjader"
INDEX 00 04:09:28
FILE "05 - Corine.wav" WAVE
INDEX 01 00:00:00
TRACK 06 AUDIO
TITLE "Noa Noa"
PERFORMER "Cal Tjader"
INDEX 00 05:13:25
FILE "06 - Noa Noa.wav" WAVE
INDEX 01 00:00:00
TRACK 07 AUDIO
TITLE "Tamanco No Samba"
PERFORMER "Cal Tjader"
INDEX 00 04:11:45
FILE "07 - Tamanco No Samba.wav" WAVE
INDEX 01 00:00:00
TRACK 08 AUDIO
TITLE "Cahuenga"
PERFORMER "Cal Tjader"
INDEX 00 05:32:05
FILE "08 - Cahuenga.wav" WAVE
INDEX 01 00:00:00
TRACK 09 AUDIO
TITLE "Cahuenga (long version)"
PERFORMER "Cal Tjader"
INDEX 00 04:44:23
FILE "09 - Cahuenga (long version).wav" WAVE
INDEX 01 00:00:00
 
Отчет CUETools
[CUETools log; Date: 15.05.2013 2:19:02; Version: 2.1.4]
[CTDB TOCID: ZpRuQfP2kWbQr1gJTRlw7N_Nxgk-] found.
Track | CTDB Status
1 | (1/1) Accurately ripped
2 | (1/1) Accurately ripped
3 | (1/1) Accurately ripped
4 | (1/1) Accurately ripped
5 | (1/1) Accurately ripped
6 | (1/1) Accurately ripped
7 | (1/1) Accurately ripped
8 | (1/1) Accurately ripped
9 | (1/1) Accurately ripped
[AccurateRip ID: 000f50aa-00711848-6e0b5409] found.
Track [ CRC | V2 ] Status
01 [c97be1bc|5aa93f85] (3+0/5) Accurately ripped
02 [07a59d18|ec9b5d3c] (3+0/5) Accurately ripped
03 [10de3639|8069a498] (3+0/5) Accurately ripped
04 [fed16492|f729b7c0] (3+0/5) Accurately ripped
05 [c846fd14|9e353fd2] (3+0/5) Accurately ripped
06 [a0863b1e|b391876b] (3+0/5) Accurately ripped
07 [3ba9b8eb|0b1d6db8] (3+0/5) Accurately ripped
08 [5e9dbe90|93c35205] (3+0/5) Accurately ripped
09 [8fb32b14|b51352bc] (3+0/5) Accurately ripped
Offsetted by -102:
01 [5362c2b7] (2/5) Accurately ripped
02 [7b7e892b] (2/5) Accurately ripped
03 [f4d01946] (2/5) Accurately ripped
04 [783127ee] (2/5) Accurately ripped
05 [5d2e55d9] (2/5) Accurately ripped
06 [e8767e0a] (2/5) Accurately ripped
07 [7d0d4ed3] (2/5) Accurately ripped
08 [579ebc9c] (2/5) Accurately ripped
09 [c2dd7adf] (2/5) Accurately ripped
Track Peak [ CRC32 ] [W/O NULL] [ LOG ]
-- 100,0 [097730A3] [499DBD45]
01 100,0 [DAC2DB79] [BD986638] CRC32
02 100,0 [4525234C] [BC1C54B5] CRC32
03 100,0 [96654E60] [20AA401B] CRC32
04 100,0 [888344E6] [EE906F66] CRC32
05 100,0 [39BEDFC3] [4B63E0DB] CRC32
06 100,0 [34A668E9] [7CE2CF25] CRC32
07 100,0 [08521520] [2F986E96] CRC32
08 100,0 [3B542D42] [B84C3AEF] CRC32
09 100,0 [CC6D57B5] [82F36B27] CRC32
 
Review by Richard S. Ginell
Cal Tjader's Brazilian explorations continue and actually deepen with this release, as he joins forces with a host of progressive young Brazilian musicians, all overseen by producer Airto Moreira. By now, Tjader had figured out how to fit into the blend, doing so by losing himself in the complex mix of Afro-Brazilian rhythms, American funk and 1970s-era electronics, integrating his own identity for the sake of the ensemble. Indeed, Tjader actually appears on marimba on tracks like Joao Donato's "Amazonas" and his collaboration with Hermeto Pascoal, "Mindoro," his playing taking on a more brittle edge as a result. Tjader's Southern Hemisphere cohorts include such emerging luminaries as keyboardist Egberto Gismonti, percussionist Robertinho Silva, the sometimes wild flutist Hermeto Pascoal and on one track, the superb trombonist Raul de Souza. The intricate arrangements are in the hands of George Duke, and so are the funky, occasionally spaced-out keyboard sounds (albeit under the contractually dictated pseudonym "Dawilli Gonga"). CD buyers get a welcome bonus, an extended, impassioned outtake of "Cahuenga."
Взамен ушедшей в архив.
11:50
353
Нет комментариев. Ваш будет первым!