Поиск

(World Fusion, Post-Bop) Camerata Flamenco Project - Avant Garde - 2012, FLAC (tracks+.cue), lossless

(World Fusion, Post-Bop) Camerata Flamenco Project - Avant Garde - 2012, FLAC (tracks+.cue), lossless
Треклист:
♦ Camerata Flamenco Project - Avant Garde ♦
Жанр: World Fusion, Post-Bop
Страна-производитель диска: Spain
Год издания: 2012
Издатель (лейбл): Nuba Records
Номер по каталогу: KAR7837
Аудиокодек: FLAC (*.flac)
Тип рипа: tracks+.cue
Битрейт аудио: lossless
Продолжительность: 00:47:48
Источник (релизер): ruskaval
Наличие сканов в содержимом раздачи: да
Треклист:
01. Intencity (Buleria) [06:30]
02. Chiquilin de Bachin (Tango Vals) [04:29]
03. Avant-Garde (Tanguillos) [04:21]
04. Seguirique (Seguiriya) [05:50]
05. Tangos de Rafael Jimenez (Tangos) [07:58]
06. A mi que me lo expliquen (Alegrias) [11:24]
07. Despedidas [07:13]
 
Лог создания рипа
Exact Audio Copy V1.0 beta 3 from 29. August 2011
EAC extraction logfile from 5. March 2013, 22:55
Camerata Flamenco Project / Avant Garde
Used drive : Optiarc DVD RW AD-7200A Adapter: 2 ID: 0
Read mode : Secure
Utilize accurate stream : Yes
Defeat audio cache : Yes
Make use of C2 pointers : No
Read offset correction : 48
Overread into Lead-In and Lead-Out : No
Fill up missing offset samples with silence : Yes
Delete leading and trailing silent blocks : No
Null samples used in CRC calculations : Yes
Used interface : Installed external ASPI interface
Gap handling : Appended to previous track
Used output format : User Defined Encoder
Selected bitrate : 896 kBit/s
Quality : High
Add ID3 tag : No
Command line compressor : C:\Program Files (x86)\Exact Audio Copy\Flac\flac.exe
Additional command line options : -8 -V -T "ARTIST=%artist%" -T "TITLE=%title%" -T "ALBUM=%albumtitle%" -T "DATE=%year%" -T "TRACKNUMBER=%tracknr%" -T "TOTALTRACKS=%numtracks%" -T "GENRE=%genre%" -T "ALBUMARTIST=%albumartist%" -T "ALBUM ARTIST=%albumartist%" -T "COMMENT=EAC Secure Mode, Test & Copy, AccurateRip, FLAC -8" %source%
TOC of the extracted CD
Track | Start | Length | Start sector | End sector
---------------------------------------------------------
1 | 0:00.00 | 6:30.58 | 0 | 29307
2 | 6:30.58 | 4:29.03 | 29308 | 49485
3 | 10:59.61 | 4:21.37 | 49486 | 69097
4 | 15:21.23 | 5:50.34 | 69098 | 95381
5 | 21:11.57 | 7:58.43 | 95382 | 131274
6 | 29:10.25 | 11:24.54 | 131275 | 182628
7 | 40:35.04 | 7:13.05 | 182629 | 215108
Track 1
Filename H:\Rips\01 - Intencity (Buleria).wav
Pre-gap length 0:00:02.00
Peak level 96.6 %
Extraction speed 2.5 X
Track quality 99.9 %
Test CRC 7FE57E43
Copy CRC 7FE57E43
Track not present in AccurateRip database
Copy OK
Track 2
Filename H:\Rips\02 - Chiquilin de Bachin (Tango Vals).wav
Pre-gap length 0:00:03.00
Peak level 96.6 %
Extraction speed 2.9 X
Track quality 100.0 %
Test CRC EA53366A
Copy CRC EA53366A
Track not present in AccurateRip database
Copy OK
Track 3
Filename H:\Rips\03 - Avant-Garde (Tanguillos).wav
Pre-gap length 0:00:03.00
Peak level 96.6 %
Extraction speed 3.1 X
Track quality 100.0 %
Test CRC 645C1738
Copy CRC 645C1738
Track not present in AccurateRip database
Copy OK
Track 4
Filename H:\Rips\04 - Seguirique (Seguiriya).wav
Pre-gap length 0:00:03.00
Peak level 96.6 %
Extraction speed 3.5 X
Track quality 100.0 %
Test CRC C5299E3D
Copy CRC C5299E3D
Track not present in AccurateRip database
Copy OK
Track 5
Filename H:\Rips\05 - Tangos de Rafael Jimenez (Tangos).wav
Pre-gap length 0:00:03.00
Peak level 96.6 %
Extraction speed 3.9 X
Track quality 100.0 %
Test CRC 623299EF
Copy CRC 623299EF
Track not present in AccurateRip database
Copy OK
Track 6
Filename H:\Rips\06 - A mi que me lo expliquen (Alegrias).wav
Pre-gap length 0:00:03.00
Peak level 96.6 %
Extraction speed 4.4 X
Track quality 100.0 %
Test CRC 71A9559D
Copy CRC 71A9559D
Track not present in AccurateRip database
Copy OK
Track 7
Filename H:\Rips\07 - Despedidas.wav
Pre-gap length 0:00:03.00
Peak level 96.6 %
Extraction speed 4.7 X
Track quality 100.0 %
Test CRC 18D54218
Copy CRC 18D54218
Track not present in AccurateRip database
Copy OK
None of the tracks are present in the AccurateRip database
No errors occurred
End of status report
==== Log checksum 66B0665394D49AA161D0CE5ACC0879312EE61D44722A29C076E1C9FD1E7738A4 ====
 
Содержание индексной карты (.CUE)
REM GENRE Flamenco/Classical/Jazz/Experimental
REM DATE 2012
REM DISCID 570B3407
REM COMMENT "ExactAudioCopy v1.0b3"
PERFORMER "Camerata Flamenco Project"
TITLE "Avant Garde"
FILE "01 - Intencity (Buleria).wav" WAVE
TRACK 01 AUDIO
TITLE "Intencity (Buleria)"
PERFORMER "Camerata Flamenco Project"
INDEX 01 00:00:00
TRACK 02 AUDIO
TITLE "Chiquilin de Bachin (Tango Vals)"
PERFORMER "Camerata Flamenco Project"
INDEX 00 06:27:58
FILE "02 - Chiquilin de Bachin (Tango Vals).wav" WAVE
INDEX 01 00:00:00
TRACK 03 AUDIO
TITLE "Avant-Garde (Tanguillos)"
PERFORMER "Camerata Flamenco Project"
INDEX 00 04:26:03
FILE "03 - Avant-Garde (Tanguillos).wav" WAVE
INDEX 01 00:00:00
TRACK 04 AUDIO
TITLE "Seguirique (Seguiriya)"
PERFORMER "Camerata Flamenco Project"
INDEX 00 04:18:37
FILE "04 - Seguirique (Seguiriya).wav" WAVE
INDEX 01 00:00:00
TRACK 05 AUDIO
TITLE "Tangos de Rafael Jimenez (Tangos)"
PERFORMER "Camerata Flamenco Project"
INDEX 00 05:47:34
FILE "05 - Tangos de Rafael Jimenez (Tangos).wav" WAVE
INDEX 01 00:00:00
TRACK 06 AUDIO
TITLE "A mi que me lo expliquen (Alegrias)"
PERFORMER "Camerata Flamenco Project"
INDEX 00 07:55:43
FILE "06 - A mi que me lo expliquen (Alegrias).wav" WAVE
INDEX 01 00:00:00
TRACK 07 AUDIO
TITLE "Despedidas"
PERFORMER "Camerata Flamenco Project"
INDEX 00 11:21:54
FILE "07 - Despedidas.wav" WAVE
INDEX 01 00:00:00
 
Состав
Pablo Suárez: Piano, Handclaps
José Luis López: Cello
Ramiro Obedman: Flute, Sax (soprano & tenor)
Karo Sampela: Drums, Percussion
José Miguel Garzón: Double Bass
12:32
323
Нет комментариев. Ваш будет первым!