Поиск

(Fusion, Funk, Brazilian) Azymuth - Telecommunication - 1982, FLAC (tracks+.cue), lossless

(Fusion, Funk, Brazilian) Azymuth - Telecommunication - 1982, FLAC (tracks+.cue), lossless
Azymuth – Telecommunication
Жанр: Fusion, Funk, Brazilian
Год издания: 1982
Издатель (лейбл): Milestone
Номер по каталогу: 813 558-2
Аудиокодек: FLAC (*.flac)
Тип рипа: tracks+.cue
Битрейт аудио: lossless
Продолжительность: 38:52
Rip by Sarchiapone
Наличие сканов в содержимом раздачи: да
Треклист:
01. Estreito De Taruma (4:20)
02. What Price Samba (6:16)
03. Country Road (3:29)
04. May I Have This Dance? (5:07)
05. Nothing Will Be As It Was (3:08)
06. Last Summer In Rio (10:45)
07. The House I Lived In (4:33)
08. Prelude (1:14)
Personnel:
José Roberto Bertrami - keyboards, vocals, percussion
Alex Malheiros - acoustic guitar, bass, vocals
Ivan Conti - percussion, drums
special guests:
Helio Delmiro - electric guitar
Doto - repique
Aleuda - percussion
Cadinho - percussion
Rec.: Transamérica Studios, Rio de Janeiro, Brazil, September 1981.
Там другое издание
 
 
Лог создания рипа
Exact Audio Copy V0.99 prebeta 4 from 23. January 2008
EAC extraction logfile from 12. April 2009, 14:43
Azymuth / Telecommunication
Used drive : PLEXTOR CD-R PREMIUM2 Adapter: 1 ID: 1
Read mode : Secure
Utilize accurate stream : Yes
Defeat audio cache : Yes
Make use of C2 pointers : No
Read offset correction : 30
Overread into Lead-In and Lead-Out : Yes
Fill up missing offset samples with silence : Yes
Delete leading and trailing silent blocks : No
Null samples used in CRC calculations : Yes
Used interface : Installed external ASPI interface
Gap handling : Appended to previous track
Used output format : User Defined Encoder
Selected bitrate : 32 kBit/s
Quality : High
Add ID3 tag : No
Command line compressor : C:\Programmi\FLAC\flac.exe
Additional command line options : -8 -V -T "ARTIST=%a" -T "TITLE=%t" -T "ALBUM=%g" -T "DATE=%y" -T "TRACKNUMBER=%n" -T "GENRE=%m" -T "COMMENT=EAC FLAC -8" %s
TOC of the extracted CD
Track | Start | Length | Start sector | End sector
---------------------------------------------------------
1 | 0:00.32 | 4:19.63 | 32 | 19519
2 | 4:20.20 | 6:15.50 | 19520 | 47694
3 | 10:35.70 | 3:29.12 | 47695 | 63381
4 | 14:05.07 | 5:07.00 | 63382 | 86406
5 | 19:12.07 | 3:08.00 | 86407 | 100506
6 | 22:20.07 | 10:44.50 | 100507 | 148856
7 | 33:04.57 | 4:33.13 | 148857 | 169344
8 | 37:37.70 | 1:14.12 | 169345 | 174906
Track 1
Filename D:\My Rip\01 - Estreito De Taruma.wav
Pre-gap length 0:00:02.42
Peak level 78.6 %
Track quality 100.0 %
Test CRC 5629BC70
Copy CRC 5629BC70
Track not present in AccurateRip database
Copy OK
Track 2
Filename D:\My Rip\02 - What Price Samba.wav
Pre-gap length 0:00:02.00
Peak level 71.8 %
Track quality 100.0 %
Test CRC 1EE86907
Copy CRC 1EE86907
Track not present in AccurateRip database
Copy OK
Track 3
Filename D:\My Rip\03 - Country Road.wav
Pre-gap length 0:00:02.00
Peak level 66.9 %
Track quality 100.0 %
Test CRC 17AD1602
Copy CRC 17AD1602
Track not present in AccurateRip database
Copy OK
Track 4
Filename D:\My Rip\04 - May I Have This Dance.wav
Peak level 73.1 %
Track quality 100.0 %
Test CRC 85CE80AB
Copy CRC 85CE80AB
Track not present in AccurateRip database
Copy OK
Track 5
Filename D:\My Rip\05 - Nothing Will Be As It Was.wav
Pre-gap length 0:00:02.00
Peak level 86.7 %
Track quality 100.0 %
Test CRC BAD38EAE
Copy CRC BAD38EAE
Track not present in AccurateRip database
Copy OK
Track 6
Filename D:\My Rip\06 - Last Summer In Rio.wav
Peak level 82.7 %
Track quality 100.0 %
Test CRC 21D66BCA
Copy CRC 21D66BCA
Track not present in AccurateRip database
Copy OK
Track 7
Filename D:\My Rip\07 - The House I Lived In.wav
Pre-gap length 0:00:02.00
Peak level 76.1 %
Track quality 100.0 %
Test CRC 8483D1CF
Copy CRC 8483D1CF
Track not present in AccurateRip database
Copy OK
Track 8
Filename D:\My Rip\08 - Prelude.wav
Peak level 38.8 %
Track quality 100.0 %
Test CRC 0A700145
Copy CRC 0A700145
Track not present in AccurateRip database
Copy OK
None of the tracks are present in the AccurateRip database
No errors occurred
End of status report
 
Содержание индексной карты (.CUE)
REM GENRE Fusion
REM DATE 1982
REM DISCID 6E091C08
REM COMMENT "ExactAudioCopy v0.99pb4"
PERFORMER "Azymuth"
TITLE "Telecommunication"
FILE "01 - Estreito De Taruma.flac" WAVE
TRACK 01 AUDIO
TITLE "Estreito De Taruma"
PERFORMER "Azymuth"
PREGAP 00:00:32
INDEX 01 00:00:00
TRACK 02 AUDIO
TITLE "What Price Samba"
PERFORMER "Azymuth"
INDEX 00 04:17:63
FILE "02 - What Price Samba.flac" WAVE
INDEX 01 00:00:00
TRACK 03 AUDIO
TITLE "Country Road"
PERFORMER "Azymuth"
INDEX 00 06:13:50
FILE "03 - Country Road.flac" WAVE
INDEX 01 00:00:00
FILE "04 - May I Have This Dance.flac" WAVE
TRACK 04 AUDIO
TITLE "May I Have This Dance"
PERFORMER "Azymuth"
INDEX 01 00:00:00
TRACK 05 AUDIO
TITLE "Nothing Will Be As It Was"
PERFORMER "Azymuth"
INDEX 00 05:05:00
FILE "05 - Nothing Will Be As It Was.flac" WAVE
INDEX 01 00:00:00
FILE "06 - Last Summer In Rio.flac" WAVE
TRACK 06 AUDIO
TITLE "Last Summer In Rio"
PERFORMER "Azymuth"
INDEX 01 00:00:00
TRACK 07 AUDIO
TITLE "The House I Lived In"
PERFORMER "Azymuth"
INDEX 00 10:42:50
FILE "07 - The House I Lived In.flac" WAVE
INDEX 01 00:00:00
FILE "08 - Prelude.flac" WAVE
TRACK 08 AUDIO
TITLE "Prelude"
PERFORMER "Azymuth"
INDEX 01 00:00:00
 
AccurateRip
[CUETools log; Date: 21.10.2013 7:16:01; Version: 2.0.9]
Pregap length 00:00:32.
[CTDB TOCID: wOHTIAYj2nN00_MPpP6CZnTaOZg-] disk not present in database.
[AccurateRip ID: 000c5e9c-00530894-6e091c08] found.
Track [ CRC ] Status
01 [d8ba9993] (3/6) Accurately ripped
02 [e0f7e905] (3/6) Accurately ripped
03 [f100fc6b] (3/6) Accurately ripped
04 [5f9f7fbc] (3/6) Accurately ripped
05 [9341a444] (3/6) Accurately ripped
06 [1c07ece3] (3/6) Accurately ripped
07 [952ac476] (3/6) Accurately ripped
08 [2abc912a] (3/6) Accurately ripped
Track Peak [ CRC32 ] [W/O NULL] [ LOG ]
-- 86,7 [82C2EAA7] [46BB0D59]
01 78,6 [5629BC70] [CE4DB0D4] CRC32
02 71,8 [1EE86907] [71495D42] CRC32
03 66,9 [17AD1602] [D4CD5F41] CRC32
04 73,1 [85CE80AB] [388B8623] CRC32
05 86,7 [BAD38EAE] [7F991D7C] CRC32
06 82,7 [21D66BCA] [4161A026] CRC32
07 76,1 [8483D1CF] [6EFBDAE8] CRC32
08 38,8 [0A700145] [8595540B] CRC32
13:32
883
Нет комментариев. Ваш будет первым!