Поиск

(World Fusion, Piano Jazz) Michel Camilo - Mano a Mano - 2011, FLAC (tracks+.cue), lossless

Michel Camilo - Mano a Mano
Жанр: World Fusion, Piano Jazz
Страна-производитель диска: EU
Год издания диска: 2011
Издатель (лейбл): Universal Music Group
Номер по каталогу: 0602527658131
Страна: Santo Domingo, Dominican Republic
Аудиокодек: FLAC (*.flac)
Тип рипа: tracks+.cue
Битрейт аудио: lossless
Продолжительность: 01:01:21
Источник (релизер): artmuss
Наличие сканов в содержимом раздачи: да
01. Yes [06:18]
02. The Sidewinder [06:19]
03. Then and Now [07:19]
04. Mano A Mano [05:03]
05. You and Me [05:30]
06. Rice and Beans [04:09]
07. Naima [04:38]
08. No Left Turn [04:21]
09. Alfonsina y El Mar [07:42]
10. Rumba Pa' Ti [07:06]
11. About You [02:52]
 
Лог создания рипа
Exact Audio Copy V1.0 beta 2 from 29. April 2011
EAC extraction logfile from 2. July 2011, 15:56
Michel Camilo / Mano A Mano
Used drive : PLEXTOR DVDR PX-L890SA Adapter: 2 ID: 1
Read mode : Secure
Utilize accurate stream : Yes
Defeat audio cache : Yes
Make use of C2 pointers : No
Read offset correction : 6
Overread into Lead-In and Lead-Out : No
Fill up missing offset samples with silence : Yes
Delete leading and trailing silent blocks : No
Null samples used in CRC calculations : Yes
Used interface : Native Win32 interface for Win NT & 2000
Gap handling : Appended to previous track
Used output format : User Defined Encoder
Selected bitrate : 256 kBit/s
Quality : High
Add ID3 tag : No
Command line compressor : C:\Program Files (x86)\Exact Audio Copy\FLAC\FLAC.EXE
Additional command line options : -8 -V -T "ARTIST=%artist%" -T "TITLE=%title%" -T "ALBUM=%albumtitle%" -T "DATE=%year%" -T "TRACKNUMBER=%tracknr%" -T "TOTALTRACKS=%numtracks%" -T "GENRE=%genre%" -T "ALBUMARTIST=%albumartist%" -T "ALBUM ARTIST=%albumartist%
TOC of the extracted CD
Track | Start | Length | Start sector | End sector
---------------------------------------------------------
1 | 0:00.00 | 6:18.60 | 0 | 28409
2 | 6:18.60 | 6:19.24 | 28410 | 56858
3 | 12:38.09 | 7:19.38 | 56859 | 89821
4 | 19:57.47 | 5:03.22 | 89822 | 112568
5 | 25:00.69 | 5:30.26 | 112569 | 137344
6 | 30:31.20 | 4:09.53 | 137345 | 156072
7 | 34:40.73 | 4:38.11 | 156073 | 176933
8 | 39:19.09 | 4:21.52 | 176934 | 196560
9 | 43:40.61 | 7:42.18 | 196561 | 231228
10 | 51:23.04 | 7:06.03 | 231229 | 263181
11 | 58:29.07 | 2:52.09 | 263182 | 276090
Track 1
Filename H:\Flac Rips\01 - Yes.wav
Pre-gap length 0:00:02.00
Peak level 89.1 %
Extraction speed 3.3 X
Track quality 99.9 %
Test CRC D8A33241
Copy CRC D8A33241
Track not present in AccurateRip database
Copy OK
Track 2
Filename H:\Flac Rips\02 - The Sidewinder.wav
Pre-gap length 0:00:02.30
Peak level 89.2 %
Extraction speed 4.4 X
Track quality 100.0 %
Test CRC 7EBD1D85
Copy CRC 7EBD1D85
Track not present in AccurateRip database
Copy OK
Track 3
Filename H:\Flac Rips\03 - Then and Now.wav
Pre-gap length 0:00:03.00
Peak level 62.4 %
Extraction speed 5.0 X
Track quality 100.0 %
Test CRC 3CB2EBD7
Copy CRC 3CB2EBD7
Track not present in AccurateRip database
Copy OK
Track 4
Filename H:\Flac Rips\04 - Mano A Mano.wav
Pre-gap length 0:00:03.00
Peak level 89.2 %
Extraction speed 5.3 X
Track quality 100.0 %
Test CRC 51BC7CF5
Copy CRC 51BC7CF5
Track not present in AccurateRip database
Copy OK
Track 5
Filename H:\Flac Rips\05 - You and Me.wav
Pre-gap length 0:00:02.00
Peak level 82.0 %
Extraction speed 4.8 X
Track quality 99.9 %
Test CRC 94D8F9B3
Copy CRC 94D8F9B3
Track not present in AccurateRip database
Copy OK
Track 6
Filename H:\Flac Rips\06 - Rice and Beans.wav
Pre-gap length 0:00:03.00
Peak level 89.2 %
Extraction speed 5.8 X
Track quality 100.0 %
Test CRC C100CBDC
Copy CRC C100CBDC
Track not present in AccurateRip database
Copy OK
Track 7
Filename H:\Flac Rips\07 - Naima.wav
Pre-gap length 0:00:03.00
Peak level 89.1 %
Extraction speed 6.1 X
Track quality 100.0 %
Test CRC E891E55E
Copy CRC E891E55E
Track not present in AccurateRip database
Copy OK
Track 8
Filename H:\Flac Rips\08 - No Left Turn.wav
Pre-gap length 0:00:02.00
Peak level 84.1 %
Extraction speed 6.3 X
Track quality 100.0 %
Test CRC 80E73C10
Copy CRC 80E73C10
Track not present in AccurateRip database
Copy OK
Track 9
Filename H:\Flac Rips\09 - Alfonsina y El Mar.wav
Pre-gap length 0:00:03.00
Peak level 68.1 %
Extraction speed 7.0 X
Track quality 100.0 %
Test CRC F238B1D3
Copy CRC F238B1D3
Track not present in AccurateRip database
Copy OK
Track 10
Filename H:\Flac Rips\10 - Rumba Pa' Ti.wav
Pre-gap length 0:00:02.00
Peak level 90.3 %
Extraction speed 7.4 X
Track quality 100.0 %
Test CRC EF6CD552
Copy CRC EF6CD552
Track not present in AccurateRip database
Copy OK
Track 11
Filename H:\Flac Rips\11 - About You.wav
Pre-gap length 0:00:03.30
Peak level 61.0 %
Extraction speed 6.8 X
Track quality 100.0 %
Test CRC 11CDF7E5
Copy CRC 11CDF7E5
Track not present in AccurateRip database
Copy OK
None of the tracks are present in the AccurateRip database
No errors occurred
End of status report
==== Log checksum 9FA0657EDF5D4493E17DAA6500A3EAFB925873AD14A6F430EAC8D48D7163D5DA ====
 
Содержание индексной карты (.CUE)
REM GENRE "Latin Jazz"
REM DATE 2011
REM DISCID 830E610B
REM COMMENT "ExactAudioCopy v1.0b2"
PERFORMER "Michel Camilo"
TITLE "Mano A Mano"
FILE "01 - Yes.wav" WAVE
TRACK 01 AUDIO
TITLE "Yes "
PERFORMER "Michel Camilo"
INDEX 01 00:00:00
TRACK 02 AUDIO
TITLE "The Sidewinder "
PERFORMER "Michel Camilo"
INDEX 00 06:16:30
FILE "02 - The Sidewinder.wav" WAVE
INDEX 01 00:00:00
TRACK 03 AUDIO
TITLE "Then and Now "
PERFORMER "Michel Camilo"
INDEX 00 06:16:24
FILE "03 - Then and Now.wav" WAVE
INDEX 01 00:00:00
TRACK 04 AUDIO
TITLE "Mano A Mano "
PERFORMER "Michel Camilo"
INDEX 00 07:16:38
FILE "04 - Mano A Mano.wav" WAVE
INDEX 01 00:00:00
TRACK 05 AUDIO
TITLE "You and Me "
PERFORMER "Michel Camilo"
INDEX 00 05:01:22
FILE "05 - You and Me.wav" WAVE
INDEX 01 00:00:00
TRACK 06 AUDIO
TITLE "Rice and Beans "
PERFORMER "Michel Camilo"
INDEX 00 05:27:26
FILE "06 - Rice and Beans.wav" WAVE
INDEX 01 00:00:00
TRACK 07 AUDIO
TITLE "Naima "
PERFORMER "Michel Camilo"
INDEX 00 04:06:53
FILE "07 - Naima.wav" WAVE
INDEX 01 00:00:00
TRACK 08 AUDIO
TITLE "No Left Turn "
PERFORMER "Michel Camilo"
INDEX 00 04:36:11
FILE "08 - No Left Turn.wav" WAVE
INDEX 01 00:00:00
TRACK 09 AUDIO
TITLE "Alfonsina y El Mar"
PERFORMER "Michel Camilo"
INDEX 00 04:18:52
FILE "09 - Alfonsina y El Mar.wav" WAVE
INDEX 01 00:00:00
TRACK 10 AUDIO
TITLE "Rumba Pa' Ti "
PERFORMER "Michel Camilo"
INDEX 00 07:40:18
FILE "10 - Rumba Pa' Ti.wav" WAVE
INDEX 01 00:00:00
TRACK 11 AUDIO
TITLE "About You "
PERFORMER "Michel Camilo"
INDEX 00 07:02:48
FILE "11 - About You.wav" WAVE
INDEX 01 00:00:00
Доп. информация: GRAMMY®, EMMY® AND TWO-TIME LATIN GRAMMY AWARD WINNER RETURNS TO HIS TRIO SETTING - FIRST TRIO PROJECT IN FOUR YEARS
 
Состав
Michel Camilo - Piano
Charles Flores – Bass
Giovanni Hidalgo – Latin Percussion
23:10
299
Нет комментариев. Ваш будет первым!