Поиск

(jazz, bossa nova) Stan Getz - The Girl From Ipanema: The Bossa Nova Years - 1989, FLAC (tracks+cue), lossless

Треклист:
Stan Getz / The Girl From Ipanema: The Bossa Nova Years
Жанр: jazz, bossa nova
Страна-производитель диска: Россия
Год издания диска: 1989
Издатель (лейбл): PolyGram Studios, USA
Страна: USA
Аудиокодек: FLAC (*.flac)
Тип рипа: tracks + cue
Битрейт аудио: lossless
Продолжительность: 3:35:43
Источник (релизер): ООО "Сантъ"
Наличие сканов в содержимом раздачи: да
Доп.информация: Это полная версия альбома 1963 года, вышедшая в России в 1989 году.
Раздача в mp3-формате здесь
 
Треклист
1. Once again (Outra Vez)
2. Samba Dees Days
3. O pato (The Duck)
4. Samba Triste
5. Samba De Uma Nota So (One Note Samba)
6. E Luxo So
7. Baia
8. Manha De Carnival (Morning Of The Carnival)
9. Balanco No Samba (Street Dance)
10. Melancolio (Melancholy)
11. Entre Amigos (Sympathy Between Friends)
12. Chega De Saudade (No More Blues)
13. Noite Triste (Night Sadness)
14. Samba De Uma Nota So (One Note Samba)
15. Bim Bom
16. Do What Yuo Do, Do
vol.2
1. Sambalero
2. So Danco Samba (I Only Dance Samba)
3. Insensates
4. O Morro Nao Tem Vez
5. Samba De Uma Notas (Two Note Samba)
6. Menina Flor
7. Mania De Maria
8. Saudade Vem Correndo
9. Um Abraco No Gets (A Tribute To Getz)
10. Ebony Samba (Second Version)
11. Ebony Samba (First Version)
12. Tribute To Stan
13. Samba Da Sahra (Sahra's Samba)
14. Maracatu - Too
15. Eu E Voice (Me And You)
16. Concovado (Quiet Nights)
17. The Girl From Ipanema
vol.3
1. Corvado (Quiet Nights)
2. Doralice
3. Para Machuchar Meu Coracao (To Hurt My Heart)
4. Desafinado
5. Corcovado (Quiet Nights)
6. So Danco Samba (I Only Dance Samba)
7. O Grande Amor
8. Vivo Sohando (Dreamer)
9. Corcovado (Quiet Nights)
10. It Might As Well Be Spring
11. Eu E Voce(Me And You)
12. Only Trust Your Heart
13. Telephone Song
14. Samba De Uma Nota So (One Note Samba)
15. Menina Moca (Young Lady)
16. Winter Moon
17. Untitled
 
Отчёт EAC
1 диск
Exact Audio Copy V0.99 prebeta 4 from 23. January 2008
EAC extraction logfile from 23. July 2011, 0:38
Stan Getz / The Girl From Ipanema - The Bossa Nova Years - Vol. 1
Used drive : Optiarc DVD RW AD-7201S Adapter: 2 ID: 2
Read mode : Secure
Utilize accurate stream : Yes
Defeat audio cache : Yes
Make use of C2 pointers : No
Read offset correction : 48
Overread into Lead-In and Lead-Out : No
Fill up missing offset samples with silence : Yes
Delete leading and trailing silent blocks : No
Null samples used in CRC calculations : Yes
Used interface : Native Win32 interface for Win NT & 2000
Gap handling : Appended to previous track
Used output format : User Defined Encoder
Selected bitrate : 128 kBit/s
Quality : High
Add ID3 tag : No
Command line compressor : C:\Program Files\Exact Audio Copy\FLAC\FLAC.EXE
Additional command line options : -8 -V -T "ARTIST=%a" -T "TITLE=%t" -T "ALBUM=%g" -T "DATE=%y" -T "TRACKNUMBER=%n" -T "GENRE=%m" -T "COMMENT=EAC FLAC -8" %s
TOC of the extracted CD
Track | Start | Length | Start sector | End sector
---------------------------------------------------------
1 | 0:00.00 | 3:35.50 | 0 | 16174
2 | 3:35.50 | 2:32.42 | 16175 | 27616
3 | 6:08.17 | 4:44.53 | 27617 | 48969
4 | 10:52.70 | 6:13.28 | 48970 | 76972
5 | 17:06.23 | 3:43.46 | 76973 | 93743
6 | 20:49.69 | 6:44.37 | 93744 | 124080
7 | 27:34.31 | 5:50.49 | 124081 | 150379
8 | 33:25.05 | 3:05.45 | 150380 | 164299
9 | 36:30.50 | 4:44.12 | 164300 | 185611
10 | 41:14.62 | 3:00.09 | 185612 | 199120
11 | 44:14.71 | 4:19.17 | 199121 | 218562
12 | 48:34.13 | 5:00.27 | 218563 | 241089
13 | 53:34.40 | 3:29.30 | 241090 | 256794
14 | 57:03.70 | 4:33.20 | 256795 | 277289
15 | 61:37.15 | 6:44.47 | 277290 | 307636
16 | 68:21.62 | 4:33.63 | 307637 | 328174
Track 1
Filename F:\My music\Stan Getz The Girl From Ipanema The Bossa Nova Years 1989 FLAC 1\vol 1\01. Stan Getz - Once Again (Outra Vez).wav
Pre-gap length 0:00:02.00
Peak level 78.5 %
Track quality 100.0 %
Test CRC F0C0FD8B
Copy CRC F0C0FD8B
Accurately ripped (confidence 1) [D5DD1D61]
Copy OK
Track 2
Filename F:\My music\Stan Getz The Girl From Ipanema The Bossa Nova Years 1989 FLAC 1\vol 1\02. Stan Getz - Samba Dees Days.wav
Peak level 97.5 %
Track quality 100.0 %
Test CRC 6A6094A1
Copy CRC 6A6094A1
Accurately ripped (confidence 1) [4EBED0CC]
Copy OK
Track 3
Filename F:\My music\Stan Getz The Girl From Ipanema The Bossa Nova Years 1989 FLAC 1\vol 1\03. Stan Getz - O Pato (The Duck).wav
Peak level 94.8 %
Track quality 100.0 %
Test CRC 1582FF4F
Copy CRC 1582FF4F
Accurately ripped (confidence 1) [2525598B]
Copy OK
Track 4
Filename F:\My music\Stan Getz The Girl From Ipanema The Bossa Nova Years 1989 FLAC 1\vol 1\04. Stan Getz - Samba Triste.wav
Peak level 86.2 %
Track quality 100.0 %
Test CRC 596B4215
Copy CRC 596B4215
Accurately ripped (confidence 1) [43794E61]
Copy OK
Track 5
Filename F:\My music\Stan Getz The Girl From Ipanema The Bossa Nova Years 1989 FLAC 1\vol 1\05. Stan Getz - Samba De Uma Nota So (One Note Samba).wav
Peak level 84.5 %
Track quality 100.0 %
Test CRC E025F264
Copy CRC E025F264
Accurately ripped (confidence 1) [FC334F64]
Copy OK
Track 6
Filename F:\My music\Stan Getz The Girl From Ipanema The Bossa Nova Years 1989 FLAC 1\vol 1\06. Stan Getz - E Luxo So.wav
Peak level 86.7 %
Track quality 100.0 %
Test CRC EEBF1340
Copy CRC EEBF1340
Accurately ripped (confidence 1) [058AA3ED]
Copy OK
Track 7
Filename F:\My music\Stan Getz The Girl From Ipanema The Bossa Nova Years 1989 FLAC 1\vol 1\07. Stan Getz - Baia.wav
Peak level 92.5 %
Track quality 99.9 %
Test CRC BEBF98C0
Copy CRC BEBF98C0
Accurately ripped (confidence 1) [5C57693F]
Copy OK
Track 8
Filename F:\My music\Stan Getz The Girl From Ipanema The Bossa Nova Years 1989 FLAC 1\vol 1\08. Stan Getz - Manha De Carnival (Morning Of The Carnival).wav
Peak level 96.5 %
Track quality 99.9 %
Test CRC EDB6D586
Copy CRC EDB6D586
Accurately ripped (confidence 1) [8695140E]
Copy OK
Track 9
Filename F:\My music\Stan Getz The Girl From Ipanema The Bossa Nova Years 1989 FLAC 1\vol 1\09. Stan Getz - Balanco No Samba (Street Dance).wav
Pre-gap length 0:00:00.01
Peak level 97.7 %
Track quality 100.0 %
Test CRC 24C55961
Copy CRC 24C55961
Accurately ripped (confidence 1) [792D9E62]
Copy OK
Track 10
Filename F:\My music\Stan Getz The Girl From Ipanema The Bossa Nova Years 1989 FLAC 1\vol 1\10. Stan Getz - Melancolio (Melancholy).wav
Peak level 88.0 %
Track quality 100.0 %
Test CRC 1931E3CB
Copy CRC 1931E3CB
Accurately ripped (confidence 1) [16BDBA1B]
Copy OK
Track 11
Filename F:\My music\Stan Getz The Girl From Ipanema The Bossa Nova Years 1989 FLAC 1\vol 1\11. Stan Getz - Entre Amigos (Sympathy Between Friends).wav
Peak level 86.1 %
Track quality 100.0 %
Test CRC 363BF060
Copy CRC 363BF060
Accurately ripped (confidence 1) [EDBCA26D]
Copy OK
Track 12
Filename F:\My music\Stan Getz The Girl From Ipanema The Bossa Nova Years 1989 FLAC 1\vol 1\12. Stan Getz - Chega De Saudade (No More Blues).wav
Peak level 97.0 %
Track quality 100.0 %
Test CRC FA6141F6
Copy CRC FA6141F6
Accurately ripped (confidence 1) [C2A1D896]
Copy OK
Track 13
Filename F:\My music\Stan Getz The Girl From Ipanema The Bossa Nova Years 1989 FLAC 1\vol 1\13. Stan Getz - Noite Triste (Night Sadness).wav
Peak level 81.4 %
Track quality 100.0 %
Test CRC F10DF351
Copy CRC F10DF351
Accurately ripped (confidence 1) [547CD4C3]
Copy OK
Track 14
Filename F:\My music\Stan Getz The Girl From Ipanema The Bossa Nova Years 1989 FLAC 1\vol 1\14. Stan Getz - Samba De Uma Nota So (One Note Sambe).wav
Peak level 98.5 %
Track quality 99.9 %
Test CRC A76A5E65
Copy CRC A76A5E65
Accurately ripped (confidence 1) [B18C052A]
Copy OK
Track 15
Filename F:\My music\Stan Getz The Girl From Ipanema The Bossa Nova Years 1989 FLAC 1\vol 1\15. Stan Getz - Bim Bom.wav
Peak level 80.0 %
Track quality 100.0 %
Test CRC AA058A3C
Copy CRC AA058A3C
Cannot be verified as accurate (confidence 1) [E7FA22C1], AccurateRip returned [277F1770]
Copy OK
Track 16
Filename F:\My music\Stan Getz The Girl From Ipanema The Bossa Nova Years 1989 FLAC 1\vol 1\16. Stan Getz - Do What You Do, Do.wav
Peak level 69.0 %
Track quality 100.0 %
Test CRC D74BC928
Copy CRC D74BC928
Accurately ripped (confidence 1) [A93A517B]
Copy OK
15 track(s) accurately ripped
1 track(s) could not be verified as accurate
Some tracks could not be verified as accurate
No errors occurred
End of status report
2 диск
Exact Audio Copy V0.99 prebeta 4 from 23. January 2008
EAC extraction logfile from 23. July 2011, 10:01
Stan Getz / The Girl From Ipanema - The Bossa Nova Years - Vol. 2
Used drive : Optiarc DVD RW AD-7201S Adapter: 2 ID: 2
Read mode : Secure
Utilize accurate stream : Yes
Defeat audio cache : Yes
Make use of C2 pointers : No
Read offset correction : 48
Overread into Lead-In and Lead-Out : No
Fill up missing offset samples with silence : Yes
Delete leading and trailing silent blocks : No
Null samples used in CRC calculations : Yes
Used interface : Native Win32 interface for Win NT & 2000
Gap handling : Appended to previous track
Used output format : User Defined Encoder
Selected bitrate : 128 kBit/s
Quality : High
Add ID3 tag : No
Command line compressor : C:\Program Files\Exact Audio Copy\FLAC\FLAC.EXE
Additional command line options : -8 -V -T "ARTIST=%a" -T "TITLE=%t" -T "ALBUM=%g" -T "DATE=%y" -T "TRACKNUMBER=%n" -T "GENRE=%m" -T "COMMENT=EAC FLAC -8" %s
TOC of the extracted CD
Track | Start | Length | Start sector | End sector
---------------------------------------------------------
1 | 0:00.00 | 2:10.43 | 0 | 9792
2 | 2:10.43 | 3:37.72 | 9793 | 26139
3 | 5:48.40 | 3:22.34 | 26140 | 41323
4 | 9:10.74 | 6:55.62 | 41324 | 72510
5 | 16:06.61 | 4:18.71 | 72511 | 91931
6 | 20:25.57 | 4:10.57 | 91932 | 110738
7 | 24:36.39 | 2:44.60 | 110739 | 123098
8 | 27:21.24 | 3:40.01 | 123099 | 139599
9 | 31:01.25 | 4:24.55 | 139600 | 159454
10 | 35:26.05 | 4:34.57 | 159455 | 180061
11 | 40:00.62 | 3:51.22 | 180062 | 197408
12 | 43:52.09 | 2:57.35 | 197409 | 210718
13 | 46:49.44 | 4:55.07 | 210719 | 232850
14 | 51:44.51 | 5:01.11 | 232851 | 255436
15 | 56:45.62 | 4:15.35 | 255437 | 274596
16 | 61:01.22 | 5:39.21 | 274597 | 300042
17 | 66:40.43 | 6:31.17 | 300043 | 329384
Track 1
Filename F:\My music\Stan Getz The Girl From Ipanema The Bossa Nova Years 1989 FLAC 1\vol 2\01. Stan Getz - Sambalero.wav
Pre-gap length 0:00:02.00
Peak level 72.7 %
Track quality 100.0 %
Test CRC E2783EC5
Copy CRC E2783EC5
Accurately ripped (confidence 1) [CD01E37A]
Copy OK
Track 2
Filename F:\My music\Stan Getz The Girl From Ipanema The Bossa Nova Years 1989 FLAC 1\vol 2\02. Stan Getz - So Danco Samba (I Only Dance Samba).wav
Peak level 76.9 %
Track quality 100.0 %
Test CRC 752BBB6B
Copy CRC 752BBB6B
Accurately ripped (confidence 1) [5BF6E8E2]
Copy OK
Track 3
Filename F:\My music\Stan Getz The Girl From Ipanema The Bossa Nova Years 1989 FLAC 1\vol 2\03. Stan Getz - Insensates.wav
Peak level 79.8 %
Track quality 100.0 %
Test CRC 0389DECD
Copy CRC 0389DECD
Accurately ripped (confidence 1) [0F7A126C]
Copy OK
Track 4
Filename F:\My music\Stan Getz The Girl From Ipanema The Bossa Nova Years 1989 FLAC 1\vol 2\04. Stan Getz - O Morro Nao Tem Vez.wav
Peak level 83.9 %
Track quality 100.0 %
Test CRC 34422CC7
Copy CRC 34422CC7
Accurately ripped (confidence 1) [6EAD8EDE]
Copy OK
Track 5
Filename F:\My music\Stan Getz The Girl From Ipanema The Bossa Nova Years 1989 FLAC 1\vol 2\05. Stan Getz - Samba De Uma Notas (Two Note Samba).wav
Peak level 86.4 %
Track quality 100.0 %
Test CRC 0122765B
Copy CRC 0122765B
Accurately ripped (confidence 1) [597BE95E]
Copy OK
Track 6
Filename F:\My music\Stan Getz The Girl From Ipanema The Bossa Nova Years 1989 FLAC 1\vol 2\06. Stan Getz - Menia Flor.wav
Peak level 91.3 %
Track quality 100.0 %
Test CRC 618957CC
Copy CRC 618957CC
Accurately ripped (confidence 1) [00DF2279]
Copy OK
Track 7
Filename F:\My music\Stan Getz The Girl From Ipanema The Bossa Nova Years 1989 FLAC 1\vol 2\07. Stan Getz - Mania De Maria.wav
Peak level 85.2 %
Track quality 100.0 %
Test CRC A56210FB
Copy CRC A56210FB
Accurately ripped (confidence 1) [80D39085]
Copy OK
Track 8
Filename F:\My music\Stan Getz The Girl From Ipanema The Bossa Nova Years 1989 FLAC 1\vol 2\08. Stan Getz - Saudade Vem Correndo.wav
Peak level 76.8 %
Track quality 100.0 %
Test CRC F3645A26
Copy CRC F3645A26
Accurately ripped (confidence 1) [5A994335]
Copy OK
Track 9
Filename F:\My music\Stan Getz The Girl From Ipanema The Bossa Nova Years 1989 FLAC 1\vol 2\09. Stan Getz - Um Abraco No Getz (A Tribute to Getz).wav
Pre-gap length 0:00:00.01
Peak level 81.1 %
Track quality 100.0 %
Test CRC BC8EEFE9
Copy CRC BC8EEFE9
Accurately ripped (confidence 1) [E7EFBF62]
Copy OK
Track 10
Filename F:\My music\Stan Getz The Girl From Ipanema The Bossa Nova Years 1989 FLAC 1\vol 2\10. Stan Getz - Ebony Samba (Second Version).wav
Peak level 74.0 %
Track quality 100.0 %
Test CRC E3ADBB83
Copy CRC E3ADBB83
Accurately ripped (confidence 1) [45BABBF2]
Copy OK
Track 11
Filename F:\My music\Stan Getz The Girl From Ipanema The Bossa Nova Years 1989 FLAC 1\vol 2\11. Stan Getz - Ebony Samba (First Version).wav
Peak level 82.7 %
Track quality 100.0 %
Test CRC 68DB8039
Copy CRC 68DB8039
Accurately ripped (confidence 1) [0658330C]
Copy OK
Track 12
Filename F:\My music\Stan Getz The Girl From Ipanema The Bossa Nova Years 1989 FLAC 1\vol 2\12. Stan Getz - Tribute To Stan.wav
Peak level 100.0 %
Track quality 100.0 %
Test CRC 8871EE21
Copy CRC 8871EE21
Accurately ripped (confidence 1) [2D8B337C]
Copy OK
Track 13
Filename F:\My music\Stan Getz The Girl From Ipanema The Bossa Nova Years 1989 FLAC 1\vol 2\13. Stan Getz - Samba Da Sahra (Sahra's Samba).wav
Peak level 78.8 %
Track quality 100.0 %
Test CRC BF3919E7
Copy CRC BF3919E7
Accurately ripped (confidence 1) [390B9DB4]
Copy OK
Track 14
Filename F:\My music\Stan Getz The Girl From Ipanema The Bossa Nova Years 1989 FLAC 1\vol 2\14. Stan Getz - Maracatu Too.wav
Peak level 94.0 %
Track quality 99.9 %
Test CRC 8062318E
Copy CRC 8062318E
Accurately ripped (confidence 1) [1A0B50DB]
Copy OK
Track 15
Filename F:\My music\Stan Getz The Girl From Ipanema The Bossa Nova Years 1989 FLAC 1\vol 2\15. Stan Getz - Eu E Voice (Me And You).wav
Peak level 75.4 %
Track quality 100.0 %
Test CRC EBB5CEB2
Copy CRC EBB5CEB2
Accurately ripped (confidence 1) [43BA1902]
Copy OK
Track 16
Filename F:\My music\Stan Getz The Girl From Ipanema The Bossa Nova Years 1989 FLAC 1\vol 2\16. Stan Getz - Corcavado (Quiet Nights).wav
Peak level 74.3 %
Track quality 100.0 %
Test CRC 575F9C22
Copy CRC 575F9C22
Accurately ripped (confidence 1) [2DAB864E]
Copy OK
Track 17
Filename F:\My music\Stan Getz The Girl From Ipanema The Bossa Nova Years 1989 FLAC 1\vol 2\17. Stan Getz - The Girl From Ipanema.wav
Peak level 66.0 %
Track quality 100.0 %
Test CRC 9F10D096
Copy CRC 9F10D096
Accurately ripped (confidence 1) [9B462AF4]
Copy OK
All tracks accurately ripped
No errors occurred
End of status report
3 диск
Exact Audio Copy V0.99 prebeta 4 from 23. January 2008
EAC extraction logfile from 23. July 2011, 10:43
Stan Getz / The Girl From Ipanema - The Bossa Nova Years - Vol. 3
Used drive : Optiarc DVD RW AD-7201S Adapter: 2 ID: 2
Read mode : Secure
Utilize accurate stream : Yes
Defeat audio cache : Yes
Make use of C2 pointers : No
Read offset correction : 48
Overread into Lead-In and Lead-Out : No
Fill up missing offset samples with silence : Yes
Delete leading and trailing silent blocks : No
Null samples used in CRC calculations : Yes
Used interface : Native Win32 interface for Win NT & 2000
Gap handling : Appended to previous track
Used output format : User Defined Encoder
Selected bitrate : 128 kBit/s
Quality : High
Add ID3 tag : No
Command line compressor : C:\Program Files\Exact Audio Copy\FLAC\FLAC.EXE
Additional command line options : -8 -V -T "ARTIST=%a" -T "TITLE=%t" -T "ALBUM=%g" -T "DATE=%y" -T "TRACKNUMBER=%n" -T "GENRE=%m" -T "COMMENT=EAC FLAC -8" %s
TOC of the extracted CD
Track | Start | Length | Start sector | End sector
---------------------------------------------------------
1 | 0:00.00 | 5:16.39 | 0 | 23738
2 | 5:16.39 | 2:47.72 | 23739 | 36335
3 | 8:04.36 | 5:08.72 | 36336 | 59507
4 | 13:13.33 | 4:18.44 | 59508 | 78901
5 | 17:32.02 | 4:16.25 | 78902 | 98126
6 | 21:48.27 | 3:41.55 | 98127 | 114756
7 | 25:30.07 | 5:30.07 | 114757 | 139513
8 | 31:00.14 | 2:58.44 | 139514 | 152907
9 | 33:58.58 | 2:31.57 | 152908 | 164289
10 | 36:30.40 | 4:26.50 | 164290 | 184289
11 | 40:57.15 | 2:30.09 | 184290 | 195548
12 | 43:27.24 | 4:26.55 | 195549 | 215553
13 | 47:54.04 | 1:54.59 | 215554 | 224162
14 | 49:48.63 | 3:16.52 | 224163 | 238914
15 | 53:05.40 | 5:44.35 | 238915 | 264749
16 | 58:50.00 | 5:19.72 | 264750 | 288746
17 | 64:09.72 | 5:52.55 | 288747 | 315201
Track 1
Filename F:\My music\Stan Getz The Girl From Ipanema The Bossa Nova Years 1989 FLAC 1\vol 3\01. Stan Getz - Corvado (Quiet Nights).wav
Pre-gap length 0:00:02.00
Peak level 65.2 %
Track quality 100.0 %
Test CRC A8722853
Copy CRC A8722853
Accurately ripped (confidence 1) [B3B9E72E]
Copy OK
Track 2
Filename F:\My music\Stan Getz The Girl From Ipanema The Bossa Nova Years 1989 FLAC 1\vol 3\02. Stan Getz - Doralice.wav
Pre-gap length 0:00:01.98
Peak level 84.8 %
Track quality 100.0 %
Test CRC 320E36A6
Copy CRC 320E36A6
Accurately ripped (confidence 1) [80CC47E4]
Copy OK
Track 3
Filename F:\My music\Stan Getz The Girl From Ipanema The Bossa Nova Years 1989 FLAC 1\vol 3\03. Stan Getz - Para Machuchar meu Coracao (To Hurt My Heart).wav
Pre-gap length 0:00:01.98
Peak level 62.6 %
Track quality 100.0 %
Test CRC 575A809E
Copy CRC 575A809E
Accurately ripped (confidence 1) [6048362C]
Copy OK
Track 4
Filename F:\My music\Stan Getz The Girl From Ipanema The Bossa Nova Years 1989 FLAC 1\vol 3\04. Stan Getz - Desafinado.wav
Pre-gap length 0:00:01.98
Peak level 59.7 %
Track quality 100.0 %
Test CRC BC259AB7
Copy CRC BC259AB7
Accurately ripped (confidence 1) [5C80D22D]
Copy OK
Track 5
Filename F:\My music\Stan Getz The Girl From Ipanema The Bossa Nova Years 1989 FLAC 1\vol 3\05. Stan Getz - Corcovado (Quiet Nights).wav
Pre-gap length 0:00:01.98
Peak level 83.5 %
Track quality 99.9 %
Test CRC 56D6608C
Copy CRC 56D6608C
Accurately ripped (confidence 1) [049A5B05]
Copy OK
Track 6
Filename F:\My music\Stan Getz The Girl From Ipanema The Bossa Nova Years 1989 FLAC 1\vol 3\06. Stan Getz - So Danco Samba (I only Dance Samba).wav
Pre-gap length 0:00:01.98
Peak level 90.6 %
Track quality 100.0 %
Test CRC 6140D5F3
Copy CRC 6140D5F3
Accurately ripped (confidence 1) [FDCA973B]
Copy OK
Track 7
Filename F:\My music\Stan Getz The Girl From Ipanema The Bossa Nova Years 1989 FLAC 1\vol 3\07. Stan Getz - O Grande Amor.wav
Pre-gap length 0:00:01.98
Peak level 66.0 %
Track quality 100.0 %
Test CRC B6A9349C
Copy CRC B6A9349C
Accurately ripped (confidence 1) [3AD37D5E]
Copy OK
Track 8
Filename F:\My music\Stan Getz The Girl From Ipanema The Bossa Nova Years 1989 FLAC 1\vol 3\08. Stan Getz - Vivo Sohando.wav
Pre-gap length 0:00:01.98
Peak level 85.2 %
Track quality 100.0 %
Test CRC 95F2AB89
Copy CRC 95F2AB89
Accurately ripped (confidence 1) [230BCF50]
Copy OK
Track 9
Filename F:\My music\Stan Getz The Girl From Ipanema The Bossa Nova Years 1989 FLAC 1\vol 3\09. Stan Getz - Corcovado (Quiet Nights).wav
Pre-gap length 0:00:01.98
Peak level 68.0 %
Track quality 99.9 %
Test CRC 1EDF87C1
Copy CRC 1EDF87C1
Accurately ripped (confidence 1) [91F6A91F]
Copy OK
Track 10
Filename F:\My music\Stan Getz The Girl From Ipanema The Bossa Nova Years 1989 FLAC 1\vol 3\10. Stan Getz - It Might As Well Be Spring.wav
Pre-gap length 0:00:01.98
Peak level 82.3 %
Track quality 100.0 %
Test CRC 6A175CB7
Copy CRC 6A175CB7
Accurately ripped (confidence 1) [E3127870]
Copy OK
Track 11
Filename F:\My music\Stan Getz The Girl From Ipanema The Bossa Nova Years 1989 FLAC 1\vol 3\11. Stan Getz - Eu E Voce (Me And You).wav
Pre-gap length 0:00:01.98
Peak level 78.9 %
Track quality 100.0 %
Test CRC 1D78DB0E
Copy CRC 1D78DB0E
Accurately ripped (confidence 1) [1747B235]
Copy OK
Track 12
Filename F:\My music\Stan Getz The Girl From Ipanema The Bossa Nova Years 1989 FLAC 1\vol 3\12. Stan Getz - Only Trust You Heart.wav
Pre-gap length 0:00:01.98
Peak level 71.2 %
Track quality 100.0 %
Test CRC 7BFA53FD
Copy CRC 7BFA53FD
Accurately ripped (confidence 1) [980CDC31]
Copy OK
Track 13
Filename F:\My music\Stan Getz The Girl From Ipanema The Bossa Nova Years 1989 FLAC 1\vol 3\13. Stan Getz - Telephone Song.wav
Pre-gap length 0:00:01.98
Peak level 99.0 %
Track quality 100.0 %
Test CRC 2932B77B
Copy CRC 2932B77B
Accurately ripped (confidence 1) [F8E74A8E]
Copy OK
Track 14
Filename F:\My music\Stan Getz The Girl From Ipanema The Bossa Nova Years 1989 FLAC 1\vol 3\14. Stan Getz - Samba De Uma Nota So (One Note Samba).wav
Pre-gap length 0:00:01.98
Peak level 73.8 %
Track quality 100.0 %
Test CRC F21DB384
Copy CRC F21DB384
Accurately ripped (confidence 1) [F9462B92]
Copy OK
Track 15
Filename F:\My music\Stan Getz The Girl From Ipanema The Bossa Nova Years 1989 FLAC 1\vol 3\15. Stan Getz - Menina Moca (Young Lady).wav
Pre-gap length 0:00:01.98
Peak level 79.6 %
Track quality 99.9 %
Test CRC A169CB5A
Copy CRC 58692DF3
Cannot be verified as accurate (confidence 1) [799851DD], AccurateRip returned [3DE3777D]
Copy OK
Track 16
Filename F:\My music\Stan Getz The Girl From Ipanema The Bossa Nova Years 1989 FLAC 1\vol 3\16. Stan Getz - Winter Moon.wav
Pre-gap length 0:00:01.98
Peak level 65.7 %
Track quality 100.0 %
Test CRC 03DF38E5
Copy CRC 03DF38E5
Accurately ripped (confidence 1) [8FB39422]
Copy OK
Track 17
Filename F:\My music\Stan Getz The Girl From Ipanema The Bossa Nova Years 1989 FLAC 1\vol 3\17. Stan Getz - Untitled.wav
Pre-gap length 0:00:01.98
Peak level 99.9 %
Track quality 100.0 %
Test CRC 10F692A2
Copy CRC 10F692A2
Accurately ripped (confidence 1) [B129E330]
Copy OK
16 track(s) accurately ripped
1 track(s) could not be verified as accurate
Some tracks could not be verified as accurate
No errors occurred
End of status report
 
cue
1 диск
REM GENRE Jazz
REM DATE 1989
REM DISCID D7111710
REM COMMENT "ExactAudioCopy v0.99pb4"
PERFORMER "Stan Getz"
TITLE "The Girl From Ipanema - The Bossa Nova Years - Vol. 1"
FILE "01. Stan Getz - Once Again (Outra Vez).wav" WAVE
TRACK 01 AUDIO
TITLE "Once Again (Outra Vez)"
PERFORMER "Stan Getz"
INDEX 01 00:00:00
FILE "02. Stan Getz - Samba Dees Days.wav" WAVE
TRACK 02 AUDIO
TITLE "Samba Dees Days"
PERFORMER "Stan Getz"
INDEX 01 00:00:00
FILE "03. Stan Getz - O Pato (The Duck).wav" WAVE
TRACK 03 AUDIO
TITLE "O Pato (The Duck)"
PERFORMER "Stan Getz"
INDEX 01 00:00:00
FILE "04. Stan Getz - Samba Triste.wav" WAVE
TRACK 04 AUDIO
TITLE "Samba Triste"
PERFORMER "Stan Getz"
INDEX 01 00:00:00
FILE "05. Stan Getz - Samba De Uma Nota So (One Note Samba).wav" WAVE
TRACK 05 AUDIO
TITLE "Samba De Uma Nota So (One Note Samba)"
PERFORMER "Stan Getz"
INDEX 01 00:00:00
FILE "06. Stan Getz - E Luxo So.wav" WAVE
TRACK 06 AUDIO
TITLE "E Luxo So"
PERFORMER "Stan Getz"
INDEX 01 00:00:00
FILE "07. Stan Getz - Baia.wav" WAVE
TRACK 07 AUDIO
TITLE "Baia"
PERFORMER "Stan Getz"
INDEX 01 00:00:00
FILE "08. Stan Getz - Manha De Carnival (Morning Of The Carnival).wav" WAVE
TRACK 08 AUDIO
TITLE "Manha De Carnival (Morning Of The Carnival)"
PERFORMER "Stan Getz"
INDEX 01 00:00:00
TRACK 09 AUDIO
TITLE "Balanco No Samba (Street Dance)"
PERFORMER "Stan Getz"
INDEX 00 03:05:44
FILE "09. Stan Getz - Balanco No Samba (Street Dance).wav" WAVE
INDEX 01 00:00:00
FILE "10. Stan Getz - Melancolio (Melancholy).wav" WAVE
TRACK 10 AUDIO
TITLE "Melancolio (Melancholy)"
PERFORMER "Stan Getz"
INDEX 01 00:00:00
FILE "11. Stan Getz - Entre Amigos (Sympathy Between Friends).wav" WAVE
TRACK 11 AUDIO
TITLE "Entre Amigos (Sympathy Between Friends)"
PERFORMER "Stan Getz"
INDEX 01 00:00:00
FILE "12. Stan Getz - Chega De Saudade (No More Blues).wav" WAVE
TRACK 12 AUDIO
TITLE "Chega De Saudade (No More Blues)"
PERFORMER "Stan Getz"
INDEX 01 00:00:00
FILE "13. Stan Getz - Noite Triste (Night Sadness).wav" WAVE
TRACK 13 AUDIO
TITLE "Noite Triste (Night Sadness)"
PERFORMER "Stan Getz"
INDEX 01 00:00:00
FILE "14. Stan Getz - Samba De Uma Nota So (One Note Sambe).wav" WAVE
TRACK 14 AUDIO
TITLE "Samba De Uma Nota So (One Note Sambe)"
PERFORMER "Stan Getz"
INDEX 01 00:00:00
FILE "15. Stan Getz - Bim Bom.wav" WAVE
TRACK 15 AUDIO
TITLE "Bim Bom"
PERFORMER "Stan Getz"
INDEX 01 00:00:00
FILE "16. Stan Getz - Do What You Do, Do.wav" WAVE
TRACK 16 AUDIO
TITLE "Do What You Do, Do"
PERFORMER "Stan Getz"
INDEX 01 00:00:00
2 диск
REM GENRE Jazz
REM DISCID D3112711
REM COMMENT "ExactAudioCopy v0.99pb4"
PERFORMER "Stan Getz"
TITLE "The Girl From Ipanema - The Bossa Nova Years - Vol. 2"
FILE "01. Stan Getz - Sambalero.wav" WAVE
TRACK 01 AUDIO
TITLE "Sambalero"
PERFORMER "Stan Getz"
INDEX 01 00:00:00
FILE "02. Stan Getz - So Danco Samba (I Only Dance Samba).wav" WAVE
TRACK 02 AUDIO
TITLE "So Danco Samba (I Only Dance Samba)"
PERFORMER "Stan Getz"
INDEX 01 00:00:00
FILE "03. Stan Getz - Insensates.wav" WAVE
TRACK 03 AUDIO
TITLE "Insensates"
PERFORMER "Stan Getz"
INDEX 01 00:00:00
FILE "04. Stan Getz - O Morro Nao Tem Vez.wav" WAVE
TRACK 04 AUDIO
TITLE "O Morro Nao Tem Vez"
PERFORMER "Stan Getz"
INDEX 01 00:00:00
FILE "05. Stan Getz - Samba De Uma Notas (Two Note Samba).wav" WAVE
TRACK 05 AUDIO
TITLE "Samba De Uma Notas (Two Note Samba)"
PERFORMER "Stan Getz"
INDEX 01 00:00:00
FILE "06. Stan Getz - Menia Flor.wav" WAVE
TRACK 06 AUDIO
TITLE "Menia Flor"
PERFORMER "Stan Getz"
INDEX 01 00:00:00
FILE "07. Stan Getz - Mania De Maria.wav" WAVE
TRACK 07 AUDIO
TITLE "Mania De Maria"
PERFORMER "Stan Getz"
INDEX 01 00:00:00
FILE "08. Stan Getz - Saudade Vem Correndo.wav" WAVE
TRACK 08 AUDIO
TITLE "Saudade Vem Correndo"
PERFORMER "Stan Getz"
INDEX 01 00:00:00
TRACK 09 AUDIO
TITLE "Um Abraco No Getz (A Tribute to Getz)"
PERFORMER "Stan Getz"
INDEX 00 03:40:00
FILE "09. Stan Getz - Um Abraco No Getz (A Tribute to Getz).wav" WAVE
INDEX 01 00:00:00
FILE "10. Stan Getz - Ebony Samba (Second Version).wav" WAVE
TRACK 10 AUDIO
TITLE "Ebony Samba (Second Version)"
PERFORMER "Stan Getz"
INDEX 01 00:00:00
FILE "11. Stan Getz - Ebony Samba (First Version).wav" WAVE
TRACK 11 AUDIO
TITLE "Ebony Samba (First Version)"
PERFORMER "Stan Getz"
INDEX 01 00:00:00
FILE "12. Stan Getz - Tribute To Stan.wav" WAVE
TRACK 12 AUDIO
TITLE "Tribute To Stan"
PERFORMER "Stan Getz"
INDEX 01 00:00:00
FILE "13. Stan Getz - Samba Da Sahra (Sahra's Samba).wav" WAVE
TRACK 13 AUDIO
TITLE "Samba Da Sahra (Sahra's Samba)"
PERFORMER "Stan Getz"
INDEX 01 00:00:00
FILE "14. Stan Getz - Maracatu Too.wav" WAVE
TRACK 14 AUDIO
TITLE "Maracatu Too"
PERFORMER "Stan Getz"
INDEX 01 00:00:00
FILE "15. Stan Getz - Eu E Voice (Me And You).wav" WAVE
TRACK 15 AUDIO
TITLE "Eu E Voice (Me And You)"
PERFORMER "Stan Getz"
INDEX 01 00:00:00
FILE "16. Stan Getz - Corcavado (Quiet Nights).wav" WAVE
TRACK 16 AUDIO
TITLE "Corcavado (Quiet Nights)"
PERFORMER "Stan Getz"
INDEX 01 00:00:00
FILE "17. Stan Getz - The Girl From Ipanema.wav" WAVE
TRACK 17 AUDIO
TITLE "The Girl From Ipanema"
PERFORMER "Stan Getz"
INDEX 01 00:00:00
3 диск
REM GENRE Jazz
REM DATE 1989
REM DISCID F5106A11
REM COMMENT "ExactAudioCopy v0.99pb4"
PERFORMER "Stan Getz"
TITLE "The Girl From Ipanema - The Bossa Nova Years - Vol. 3"
FILE "01. Stan Getz - Corvado (Quiet Nights).wav" WAVE
TRACK 01 AUDIO
TITLE "Corvado (Quiet Nights)"
PERFORMER "Stan Getz"
INDEX 01 00:00:00
TRACK 02 AUDIO
TITLE "Doralice"
PERFORMER "Stan Getz"
INDEX 00 05:14:40
FILE "02. Stan Getz - Doralice.wav" WAVE
INDEX 01 00:00:00
TRACK 03 AUDIO
TITLE "Para Machuchar meu Coracao (To Hurt My Heart)"
PERFORMER "Stan Getz"
INDEX 00 02:45:73
FILE "03. Stan Getz - Para Machuchar meu Coracao (To Hurt My Heart).wav" WAVE
INDEX 01 00:00:00
TRACK 04 AUDIO
TITLE "Desafinado"
PERFORMER "Stan Getz"
INDEX 00 05:06:73
FILE "04. Stan Getz - Desafinado.wav" WAVE
INDEX 01 00:00:00
TRACK 05 AUDIO
TITLE "Corcovado (Quiet Nights)"
PERFORMER "Stan Getz"
INDEX 00 04:16:45
FILE "05. Stan Getz - Corcovado (Quiet Nights).wav" WAVE
INDEX 01 00:00:00
TRACK 06 AUDIO
TITLE "So Danco Samba (I only Dance Samba)"
PERFORMER "Stan Getz"
INDEX 00 04:14:26
FILE "06. Stan Getz - So Danco Samba (I only Dance Samba).wav" WAVE
INDEX 01 00:00:00
TRACK 07 AUDIO
TITLE "O Grande Amor"
PERFORMER "Stan Getz"
INDEX 00 03:39:56
FILE "07. Stan Getz - O Grande Amor.wav" WAVE
INDEX 01 00:00:00
TRACK 08 AUDIO
TITLE "Vivo Sohando"
PERFORMER "Stan Getz"
INDEX 00 05:28:08
FILE "08. Stan Getz - Vivo Sohando.wav" WAVE
INDEX 01 00:00:00
TRACK 09 AUDIO
TITLE "Corcovado (Quiet Nights)"
PERFORMER "Stan Getz"
INDEX 00 02:56:45
FILE "09. Stan Getz - Corcovado (Quiet Nights).wav" WAVE
INDEX 01 00:00:00
TRACK 10 AUDIO
TITLE "It Might As Well Be Spring"
PERFORMER "Stan Getz"
INDEX 00 02:29:58
FILE "10. Stan Getz - It Might As Well Be Spring.wav" WAVE
INDEX 01 00:00:00
TRACK 11 AUDIO
TITLE "Eu E Voce (Me And You)"
PERFORMER "Stan Getz"
INDEX 00 04:24:51
FILE "11. Stan Getz - Eu E Voce (Me And You).wav" WAVE
INDEX 01 00:00:00
TRACK 12 AUDIO
TITLE "Only Trust You Heart"
PERFORMER "Stan Getz"
INDEX 00 02:28:10
FILE "12. Stan Getz - Only Trust You Heart.wav" WAVE
INDEX 01 00:00:00
TRACK 13 AUDIO
TITLE "Telephone Song"
PERFORMER "Stan Getz"
INDEX 00 04:24:56
FILE "13. Stan Getz - Telephone Song.wav" WAVE
INDEX 01 00:00:00
TRACK 14 AUDIO
TITLE "Samba De Uma Nota So (One Note Samba)"
PERFORMER "Stan Getz"
INDEX 00 01:52:60
FILE "14. Stan Getz - Samba De Uma Nota So (One Note Samba).wav" WAVE
INDEX 01 00:00:00
TRACK 15 AUDIO
TITLE "Menina Moca (Young Lady)"
PERFORMER "Stan Getz"
INDEX 00 03:14:53
FILE "15. Stan Getz - Menina Moca (Young Lady).wav" WAVE
INDEX 01 00:00:00
TRACK 16 AUDIO
TITLE "Winter Moon"
PERFORMER "Stan Getz"
INDEX 00 05:42:36
FILE "16. Stan Getz - Winter Moon.wav" WAVE
INDEX 01 00:00:00
TRACK 17 AUDIO
TITLE "Untitled"
PERFORMER "Stan Getz"
INDEX 00 05:17:73
FILE "17. Stan Getz - Untitled.wav" WAVE
INDEX 01 00:00:00
 
Скриншот спектра частот
23:10
261
Нет комментариев. Ваш будет первым!